  0
SECTION
  2
HEADER
  9
$ACADVER
  1
AC1014
  9
$ACADMAINTVER
 70
           0
  9
$DWGCODEPAGE
  3
ANSI_1252
  9
$INSBASE
 10
0.0
 20
0.0
 30
0.0
  9
$EXTMIN
 10
-1376.354137577724
 20
-145.986771708286
 30
0.0
  9
$EXTMAX
 10
-663.373817392301
 20
354.493548477137
 30
0.0
  9
$LIMMIN
 10
-1389.724005946263
 20
-158.555101529575
  9
$LIMMAX
 10
-648.945449023763
 20
366.215128298425
  9
$ORTHOMODE
 70
           0
  9
$REGENMODE
 70
           1
  9
$FILLMODE
 70
           1
  9
$QTEXTMODE
 70
           0
  9
$MIRRTEXT
 70
           1
  9
$DRAGMODE
 70
           0
  9
$LTSCALE
 40
1.0
  9
$OSMODE
 70
           0
  9
$ATTMODE
 70
           1
  9
$TEXTSIZE
 40
8.3333330154
  9
$TRACEWID
 40
1.0
  9
$TEXTSTYLE
  7
STANDARD
  9
$CLAYER
  8
0
  9
$CELTYPE
  6
CONTINUOUS
  9
$CECOLOR
 62
           7
  9
$CELTSCALE
 40
1.0
  9
$DELOBJ
 70
           1
  9
$DISPSILH
 70
           0
  9
$DIMSCALE
 40
2.5
  9
$DIMASZ
 40
3.0
  9
$DIMEXO
 40
1.0
  9
$DIMDLI
 40
5.0
  9
$DIMRND
 40
0.1
  9
$DIMDLE
 40
0.0
  9
$DIMEXE
 40
2.0
  9
$DIMTP
 40
0.0
  9
$DIMTM
 40
0.0
  9
$DIMTXT
 40
3.0
  9
$DIMCEN
 40
0.09
  9
$DIMTSZ
 40
0.0
  9
$DIMTOL
 70
           0
  9
$DIMLIM
 70
           0
  9
$DIMTIH
 70
           1
  9
$DIMTOH
 70
           1
  9
$DIMSE1
 70
           0
  9
$DIMSE2
 70
           0
  9
$DIMTAD
 70
           0
  9
$DIMZIN
 70
          11
  9
$DIMBLK
  1

  9
$DIMASO
 70
           0
  9
$DIMSHO
 70
           1
  9
$DIMPOST
  1

  9
$DIMAPOST
  1

  9
$DIMALT
 70
           0
  9
$DIMALTD
 70
           2
  9
$DIMALTF
 40
1.0
  9
$DIMLFAC
 40
1.0
  9
$DIMTOFL
 70
           1
  9
$DIMTVP
 40
0.0
  9
$DIMTIX
 70
           0
  9
$DIMSOXD
 70
           0
  9
$DIMSAH
 70
           0
  9
$DIMBLK1
  1

  9
$DIMBLK2
  1

  9
$DIMSTYLE
  2
STANDARD
  9
$DIMCLRD
 70
         256
  9
$DIMCLRE
 70
         256
  9
$DIMCLRT
 70
         256
  9
$DIMTFAC
 40
1.0
  9
$DIMGAP
 40
2.0
  9
$DIMJUST
 70
           0
  9
$DIMSD1
 70
           0
  9
$DIMSD2
 70
           0
  9
$DIMTOLJ
 70
           1
  9
$DIMTZIN
 70
           0
  9
$DIMALTZ
 70
           0
  9
$DIMALTTZ
 70
           8
  9
$DIMFIT
 70
           0
  9
$DIMUPT
 70
           0
  9
$DIMUNIT
 70
           2
  9
$DIMDEC
 70
           2
  9
$DIMTDEC
 70
           3
  9
$DIMALTU
 70
           2
  9
$DIMALTTD
 70
           8
  9
$DIMTXSTY
  7
STANDARD
  9
$DIMAUNIT
 70
           0
  9
$LUNITS
 70
           2
  9
$LUPREC
 70
           2
  9
$SKETCHINC
 40
1.0
  9
$FILLETRAD
 40
1.0
  9
$AUNITS
 70
           0
  9
$AUPREC
 70
           2
  9
$MENU
  1
acad
  9
$ELEVATION
 40
0.0
  9
$PELEVATION
 40
0.0
  9
$THICKNESS
 40
0.0
  9
$LIMCHECK
 70
           0
  9
$BLIPMODE
 70
           1
  9
$CHAMFERA
 40
0.0
  9
$CHAMFERB
 40
0.0
  9
$CHAMFERC
 40
0.0
  9
$CHAMFERD
 40
0.0
  9
$SKPOLY
 70
           0
  9
$TDCREATE
 40
0.000000000
  9
$TDUPDATE
 40
2449702.667959363
  9
$TDINDWG
 40
0.0000000000
  9
$TDUSRTIMER
 40
0.0000000000
  9
$USRTIMER
 70
           1
  9
$ANGBASE
 50
0.0
  9
$ANGDIR
 70
           0
  9
$PDMODE
 70
           0
  9
$PDSIZE
 40
0.0
  9
$PLINEWID
 40
0.0
  9
$COORDS
 70
           0
  9
$SPLFRAME
 70
           0
  9
$SPLINETYPE
 70
           5
  9
$SPLINESEGS
 70
          20
  9
$ATTDIA
 70
           0
  9
$ATTREQ
 70
           1
  9
$HANDLING
 70
           1
  9
$HANDSEED
  5
35D
  9
$SURFTAB1
 70
           6
  9
$SURFTAB2
 70
           6
  9
$SURFTYPE
 70
           6
  9
$SURFU
 70
           6
  9
$SURFV
 70
           6
  9
$UCSNAME
  2

  9
$UCSORG
 10
0.0
 20
0.0
 30
0.0
  9
$UCSXDIR
 10
1.0
 20
0.0
 30
0.0
  9
$UCSYDIR
 10
0.0
 20
1.0
 30
0.0
  9
$PUCSNAME
  2

  9
$PUCSORG
 10
0.0
 20
0.0
 30
0.0
  9
$PUCSXDIR
 10
1.0
 20
0.0
 30
0.0
  9
$PUCSYDIR
 10
0.0
 20
1.0
 30
0.0
  9
$USERI1
 70
           0
  9
$USERI2
 70
           0
  9
$USERI3
 70
           0
  9
$USERI4
 70
           0
  9
$USERI5
 70
           0
  9
$USERR1
 40
0.0
  9
$USERR2
 40
0.0
  9
$USERR3
 40
0.0
  9
$USERR4
 40
0.0
  9
$USERR5
 40
0.0
  9
$WORLDVIEW
 70
           1
  9
$SHADEDGE
 70
           3
  9
$SHADEDIF
 70
          70
  9
$TILEMODE
 70
           1
  9
$MAXACTVP
 70
          16
  9
$PINSBASE
 10
0.0
 20
0.0
 30
0.0
  9
$PLIMCHECK
 70
           0
  9
$PEXTMIN
 10
0.0
 20
0.0
 30
0.0
  9
$PEXTMAX
 10
296.311422769
 20
209.9080919312
 30
0.0
  9
$PLIMMIN
 10
0.0
 20
0.0
  9
$PLIMMAX
 10
296.311422769
 20
209.9080919312
  9
$UNITMODE
 70
           0
  9
$VISRETAIN
 70
           0
  9
$PLINEGEN
 70
           1
  9
$PSLTSCALE
 70
           1
  9
$TREEDEPTH
 70
        3020
  9
$PICKSTYLE
 70
           1
  9
$CMLSTYLE
  2
STANDARD
  9
$CMLJUST
 70
           0
  9
$CMLSCALE
 40
1.0
  9
$PROXYGRAPHICS
 70
           0
  9
$MEASUREMENT
 70
           0
  0
ENDSEC
  0
SECTION
  2
CLASSES
  0
CLASS
  1
LWPOLYLINE
  2
AcDbPolyline
  3
"AutoCAD"
 90
        0
280
           0
281
           1
  0
CLASS
  1
IMAGE
  2
AcDbRasterImage
  3
ISM
 90
      127
280
           0
281
           1
  0
CLASS
  1
OLE2FRAME
  2
AcDbOle2Frame
  3
""
 90
        0
280
           0
281
           1
  0
CLASS
  1
HATCH
  2
AcDbHatch
  3
"ACAD_SEDONA"
 90
        0
280
           0
281
           1
  0
CLASS
  1
DICTIONARYVAR
  2
AcDbDictionaryVar
  3
"AutoCAD"
 90
        0
280
           0
281
           0
  0
CLASS
  1
RASTERVARIABLES
  2
AcDbRasterVariables
  3
ISM
 90
        0
280
           0
281
           0
  0
CLASS
  1
IMAGEDEF
  2
AcDbRasterImageDef
  3
ISM
 90
        0
280
           0
281
           0
  0
CLASS
  1
IMAGEDEF_REACTOR
  2
AcDbRasterImageDefReactor
  3
ISM
 90
        1
280
           0
281
           0
  0
CLASS
  1
IDBUFFER
  2
AcDbIdBuffer
  3
"Acad"
 90
        0
280
           0
281
           0
  0
CLASS
  1
SPATIAL_FILTER
  2
AcDbSpatialFilter
  3
"Acad"
 90
        0
280
           0
281
           0
  0
CLASS
  1
XRECORD
  2
AcDbXrecord
  3
"<Built In>"
 90
        0
280
           0
281
           0
  0
CLASS
  1
SORTENTSTABLE
  2
AcDbSortentsTable
  3
"AutoCAD"
 90
        0
280
           0
281
           0
  0
CLASS
  1
LAYER_INDEX
  2
AcDbLayerIndex
  3
"Acad"
 90
        0
280
           0
281
           0
  0
CLASS
  1
SPATIAL_INDEX
  2
AcDbSpatialIndex
  3
"Acad"
 90
        0
280
           0
281
           0
  0
CLASS
  1
OBJECT_PTR
  2
CAseDLPNTableRecord
  3
"ASE-LPNTableRecord"
 90
        1
280
           0
281
           0
  0
CLASS
  1
LAYOUT
  2
AcDbLayout
  3
"AutoCAD 2000"
 90
        1
280
           0
281
           0
  0
CLASS
  1
PLOTSETTINGS
  2
AcDbPlotSettings
  3
"AutoCAD 2000"
 90
        1
280
           0
281
           0
  0
CLASS
  1
ACDBDICTIONARYWDFLT
  2
AcDbDictionaryWithDefault
  3
"AutoCAD 2000"
 90
        1
280
           0
281
           0
  0
CLASS
  1
ACDBPLACEHOLDER
  2
AcDbPlaceHolder
  3
"AutoCAD 2000"
 90
        1
280
           0
281
           0
  0
ENDSEC
  0
SECTION
  2
TABLES
  0
TABLE
  2
VPORT
  5
7
100
AcDbSymbolTable
 70
           1
  0
VPORT
  5
15
100
AcDbSymbolTableRecord
100
AcDbViewportTableRecord
  2
*ACTIVE
 70
           0
 10
0.0
 20
0.0
 11
1.0
 21
1.0
 12
0.0
 22
0.0
 13
0.0
 23
0.0
 14
2.5
 24
2.5
 15
2.5
 25
2.5
 16
0.0
 26
0.0
 36
1.0
 17
-1019.863977485013
 27
104.253388384425
 37
0.0
 40
510.24508081466
 41
1.855541718555
 42
50.0
 43
0.0
 44
0.0
 50
0.0
 51
0.0
 71
           0
 72
         100
 73
           1
 74
           1
 75
           0
 76
           0
 77
           0
 78
           0
  0
ENDTAB
  0
TABLE
  2
LTYPE
  5
4
100
AcDbSymbolTable
 70
          24
  0
LTYPE
  5
11
100
AcDbSymbolTableRecord
100
AcDbLinetypeTableRecord
  2
BYBLOCK
 70
          64
  3

 72
          65
 73
           0
 40
0.0
  0
LTYPE
  5
12
100
AcDbSymbolTableRecord
100
AcDbLinetypeTableRecord
  2
BYLAYER
 70
          64
  3

 72
          65
 73
           0
 40
0.0
  0
LTYPE
  5
13
100
AcDbSymbolTableRecord
100
AcDbLinetypeTableRecord
  2
CONTINUOUS
 70
          64
  3
Solid line
 72
          65
 73
           0
 40
0.0
  0
LTYPE
  5
1E
100
AcDbSymbolTableRecord
100
AcDbLinetypeTableRecord
  2
DURCHGEHEND
 70
           0
  3
Durchgehend
 72
          65
 73
           0
 40
0.0
  0
LTYPE
  5
1F
100
AcDbSymbolTableRecord
100
AcDbLinetypeTableRecord
  2
RAND
 70
           0
  3
Rand
 72
          65
 73
           6
 40
1.75
 49
0.5
 74
           0
 49
-0.25
 74
           0
 49
0.5
 74
           0
 49
-0.25
 74
           0
 49
0.0
 74
           0
 49
-0.25
 74
           0
  0
LTYPE
  5
20
100
AcDbSymbolTableRecord
100
AcDbLinetypeTableRecord
  2
MITTE
 70
           0
  3
Mitte
 72
          65
 73
           4
 40
2.0
 49
1.25
 74
           0
 49
-0.25
 74
           0
 49
0.25
 74
           0
 49
-0.25
 74
           0
  0
LTYPE
  5
21
100
AcDbSymbolTableRecord
100
AcDbLinetypeTableRecord
  2
STRICHPUNKT
 70
           0
  3
Strichpunkt
 72
          65
 73
           4
 40
1.0
 49
0.5
 74
           0
 49
-0.25
 74
           0
 49
0.0
 74
           0
 49
-0.25
 74
           0
  0
LTYPE
  5
22
100
AcDbSymbolTableRecord
100
AcDbLinetypeTableRecord
  2
GESTRICHELT
 70
           0
  3
Gestrichelt
 72
          65
 73
           2
 40
0.75
 49
0.5
 74
           0
 49
-0.25
 74
           0
  0
LTYPE
  5
23
100
AcDbSymbolTableRecord
100
AcDbLinetypeTableRecord
  2
TEILEN
 70
           0
  3
Teilen
 72
          65
 73
           6
 40
1.25
 49
0.5
 74
           0
 49
-0.25
 74
           0
 49
0.0
 74
           0
 49
-0.25
 74
           0
 49
0.0
 74
           0
 49
-0.25
 74
           0
  0
LTYPE
  5
24
100
AcDbSymbolTableRecord
100
AcDbLinetypeTableRecord
  2
PUNKT
 70
           0
  3
Punkt
 72
          65
 73
           2
 40
0.25
 49
0.0
 74
           0
 49
-0.25
 74
           0
  0
LTYPE
  5
25
100
AcDbSymbolTableRecord
100
AcDbLinetypeTableRecord
  2
VERDECKT
 70
           0
  3
Verdeckt
 72
          65
 73
           2
 40
0.375
 49
0.25
 74
           0
 49
-0.125
 74
           0
  0
LTYPE
  5
26
100
AcDbSymbolTableRecord
100
AcDbLinetypeTableRecord
  2
$INVISIBLE
 70
           0
  3
$INVISIBLE
 72
          65
 73
           2
 40
200.0
 49
-100.0
 74
           0
 49
-100.0
 74
           0
  0
LTYPE
  5
27
100
AcDbSymbolTableRecord
100
AcDbLinetypeTableRecord
  2
BORDER
 70
           0
  3
BORDER
 72
          65
 73
           6
 40
1.75
 49
0.5
 74
           0
 49
-0.25
 74
           0
 49
0.5
 74
           0
 49
-0.25
 74
           0
 49
0.0
 74
           0
 49
-0.25
 74
           0
  0
LTYPE
  5
28
100
AcDbSymbolTableRecord
100
AcDbLinetypeTableRecord
  2
CENTER
 70
           0
  3
CENTER
 72
          65
 73
           4
 40
2.0
 49
1.25
 74
           0
 49
-0.25
 74
           0
 49
0.25
 74
           0
 49
-0.25
 74
           0
  0
LTYPE
  5
29
100
AcDbSymbolTableRecord
100
AcDbLinetypeTableRecord
  2
DASHDOT
 70
           0
  3
DASHDOT
 72
          65
 73
           4
 40
1.0
 49
0.5
 74
           0
 49
-0.25
 74
           0
 49
0.0
 74
           0
 49
-0.25
 74
           0
  0
LTYPE
  5
2A
100
AcDbSymbolTableRecord
100
AcDbLinetypeTableRecord
  2
DASHED
 70
           0
  3
DASHED
 72
          65
 73
           2
 40
0.75
 49
0.5
 74
           0
 49
-0.25
 74
           0
  0
LTYPE
  5
2B
100
AcDbSymbolTableRecord
100
AcDbLinetypeTableRecord
  2
DIVIDE
 70
           0
  3
DIVIDE
 72
          65
 73
           6
 40
1.25
 49
0.5
 74
           0
 49
-0.25
 74
           0
 49
0.0
 74
           0
 49
-0.25
 74
           0
 49
0.0
 74
           0
 49
-0.25
 74
           0
  0
LTYPE
  5
2C
100
AcDbSymbolTableRecord
100
AcDbLinetypeTableRecord
  2
DOT
 70
           0
  3
DOT
 72
          65
 73
           2
 40
0.25
 49
0.0
 74
           0
 49
-0.25
 74
           0
  0
LTYPE
  5
2D
100
AcDbSymbolTableRecord
100
AcDbLinetypeTableRecord
  2
HIDDEN
 70
           0
  3
HIDDEN
 72
          65
 73
           2
 40
0.375
 49
0.25
 74
           0
 49
-0.125
 74
           0
  0
LTYPE
  5
2E
100
AcDbSymbolTableRecord
100
AcDbLinetypeTableRecord
  2
PHANTOM
 70
           0
  3
PHANTOM
 72
          65
 73
           6
 40
2.5
 49
1.25
 74
           0
 49
-0.25
 74
           0
 49
0.25
 74
           0
 49
-0.25
 74
           0
 49
0.25
 74
           0
 49
-0.25
 74
           0
  0
LTYPE
  5
2F
100
AcDbSymbolTableRecord
100
AcDbLinetypeTableRecord
  2
$MARGINS
 70
           0
  3
$MARGINS
 72
          65
 73
           2
 40
0.075
 49
0.05
 74
           0
 49
-0.025
 74
           0
  0
LTYPE
  5
30
100
AcDbSymbolTableRecord
100
AcDbLinetypeTableRecord
  2
$AUXILIARY
 70
           0
  3
$AUXILIARY
 72
          65
 73
           2
 40
0.10000000149
 49
0.050000000745
 74
           0
 49
-0.050000000745
 74
           0
  0
LTYPE
  5
31
100
AcDbSymbolTableRecord
100
AcDbLinetypeTableRecord
  2
$SNAPEXT
 70
           0
  3
$SNAPEXT
 72
          65
 73
           2
 40
0.04
 49
0.02
 74
           0
 49
-0.02
 74
           0
  0
LTYPE
  5
32
100
AcDbSymbolTableRecord
100
AcDbLinetypeTableRecord
  2
$CONSTRUCTION
 70
           0
  3
$CONSTRUCTION
 72
          65
 73
           4
 40
0.3
 49
0.2
 74
           0
 49
-0.05
 74
           0
 49
0.0
 74
           0
 49
-0.05
 74
           0
  0
ENDTAB
  0
TABLE
  2
LAYER
  5
2
100
AcDbSymbolTable
 70
          11
  0
LAYER
  5
14
100
AcDbSymbolTableRecord
100
AcDbLayerTableRecord
  2
0
 70
           0
 62
           7
  6
CONTINUOUS
1001
TCAD
1000
TCW_LAYER_ORDER
1002
{
1071
        0
1002
}
  0
LAYER
  5
33
100
AcDbSymbolTableRecord
100
AcDbLayerTableRecord
  2
NORMTEILE
 70
           0
 62
           3
  6
CONTINUOUS
1001
TCAD
1000
TCW_LAYER_ORDER
1002
{
1071
        0
1002
}
  0
LAYER
  5
34
100
AcDbSymbolTableRecord
100
AcDbLayerTableRecord
  2
INFO
 70
           0
 62
           4
  6
CONTINUOUS
1001
TCAD
1000
TCW_LAYER_ORDER
1002
{
1071
        0
1002
}
  0
LAYER
  5
35
100
AcDbSymbolTableRecord
100
AcDbLayerTableRecord
  2
KAUFTEIL
 70
           0
 62
          84
  6
CONTINUOUS
1001
TCAD
1000
TCW_LAYER_ORDER
1002
{
1071
        0
1002
}
  0
LAYER
  5
36
100
AcDbSymbolTableRecord
100
AcDbLayerTableRecord
  2
F_HRUNG
 70
           0
 62
         190
  6
CONTINUOUS
1001
TCAD
1000
TCW_LAYER_ORDER
1002
{
1071
        0
1002
}
  0
LAYER
  5
37
100
AcDbSymbolTableRecord
100
AcDbLayerTableRecord
  2
ABDECKUNG
 70
           0
 62
           1
  6
CONTINUOUS
1001
TCAD
1000
TCW_LAYER_ORDER
1002
{
1071
        0
1002
}
  0
LAYER
  5
38
100
AcDbSymbolTableRecord
100
AcDbLayerTableRecord
  2
SEITENPLATTEN
 70
           0
 62
           5
  6
CONTINUOUS
1001
TCAD
1000
TCW_LAYER_ORDER
1002
{
1071
        0
1002
}
  0
LAYER
  5
39
100
AcDbSymbolTableRecord
100
AcDbLayerTableRecord
  2
ENDSCHALTER
 70
           0
 62
          41
  6
CONTINUOUS
1001
TCAD
1000
TCW_LAYER_ORDER
1002
{
1071
        0
1002
}
  0
LAYER
  5
3A
100
AcDbSymbolTableRecord
100
AcDbLayerTableRecord
  2
ANTRIEB
 70
           0
 62
          13
  6
CONTINUOUS
1001
TCAD
1000
TCW_LAYER_ORDER
1002
{
1071
        0
1002
}
  0
LAYER
  5
3B
100
AcDbSymbolTableRecord
100
AcDbLayerTableRecord
  2
$CONSTRUCTION
 70
           0
 62
           9
  6
$CONSTRUCTION
1001
TCAD
1000
TCW_LAYER_ORDER
1002
{
1071
        0
1002
}
  0
LAYER
  5
3C
100
AcDbSymbolTableRecord
100
AcDbLayerTableRecord
  2
SCHRAFFUREN
 70
           0
 62
           7
  6
CONTINUOUS
1001
TCAD
1000
TCW_LAYER_ORDER
1002
{
1071
        0
1002
}
  0
ENDTAB
  0
TABLE
  2
STYLE
  5
3
100
AcDbSymbolTable
 70
           1
  0
STYLE
  5
17
100
AcDbSymbolTableRecord
100
AcDbTextStyleTableRecord
  2
STANDARD
 70
           0
 40
0.0
 41
1.0
 50
0.0
 71
           0
 42
5.0
  3
ISONORMD.TTF
  4

1001
ACAD
1000
IsonormD
1071
       34
  0
ENDTAB
  0
TABLE
  2
VIEW
  5
5
100
AcDbSymbolTable
 70
          58
  0
VIEW
  5
3D
100
AcDbSymbolTableRecord
100
AcDbViewTableRecord
  2
ANSICHT_0
 70
           0
 40
210.0
 10
148.25
 20
104.75
 41
297.0
 11
0.0
 21
0.0
 31
1.0
 12
0.0
 22
0.0
 32
0.0
 42
45.247172312671
 43
0.0
 44
0.0
 50
0.0
 71
           0
  0
VIEW
  5
3E
100
AcDbSymbolTableRecord
100
AcDbViewTableRecord
  2
SEITENBREITE__UNTEN
 70
           0
 40
200.230117797852
 10
154.35159778595
 20
91.803871154785
 41
334.670339584351
 11
0.0
 21
0.0
 31
1.0
 12
0.0
 22
0.0
 32
0.0
 42
40.238044697873
 43
0.0
 44
0.0
 50
0.0
 71
           0
  0
VIEW
  5
3F
100
AcDbSymbolTableRecord
100
AcDbViewTableRecord
  2
SEITENBREITE__OBEN
 70
           0
 40
200.230117797852
 10
154.35159778595
 20
116.832633972168
 41
334.670339584351
 11
0.0
 21
0.0
 31
1.0
 12
0.0
 22
0.0
 32
0.0
 42
40.238044697873
 43
0.0
 44
0.0
 50
0.0
 71
           0
  0
VIEW
  5
40
100
AcDbSymbolTableRecord
100
AcDbViewTableRecord
  2
SEITE
 70
           0
 40
4227.50537109375
 10
12889.728515625
 20
257.247802734375
 41
5911.5390625
 11
0.0
 21
0.0
 31
1.0
 12
0.0
 22
0.0
 32
0.0
 42
45.588955337989
 43
0.0
 44
0.0
 50
0.0
 71
           0
  0
VIEW
  5
41
100
AcDbSymbolTableRecord
100
AcDbViewTableRecord
  2
DRAUFSICHT
 70
           0
 40
4285.5751953125
 10
12895.53564453125
 20
-4150.27490234375
 41
6016.0654296875
 11
0.0
 21
0.0
 31
1.0
 12
0.0
 22
0.0
 32
0.0
 42
45.471781884877
 43
0.0
 44
0.0
 50
0.0
 71
           0
  0
VIEW
  5
42
100
AcDbSymbolTableRecord
100
AcDbViewTableRecord
  2
VORDERANS_
 70
           0
 40
4297.189575195313
 10
6095.523315429688
 20
-346.681579589844
 41
5981.222900390625
 11
0.0
 21
0.0
 31
1.0
 12
0.0
 22
0.0
 32
0.0
 42
45.728615200366
 43
0.0
 44
0.0
 50
0.0
 71
           0
  0
VIEW
  5
43
100
AcDbSymbolTableRecord
100
AcDbViewTableRecord
  2
LINKS
 70
           0
 40
294.36279296875
 10
11496.95556640625
 20
-4672.079345703125
 41
896.6748046875
 11
0.0
 21
0.0
 31
1.0
 12
0.0
 22
0.0
 32
0.0
 42
24.44500256436
 43
0.0
 44
0.0
 50
0.0
 71
           0
  0
VIEW
  5
44
100
AcDbSymbolTableRecord
100
AcDbViewTableRecord
  2
RECHTS
 70
           0
 40
256.624145507813
 10
11458.46142578125
 20
-1851.477844238281
 41
843.8408203125
 11
0.0
 21
0.0
 31
1.0
 12
0.0
 22
0.0
 32
0.0
 42
22.803209319354
 43
0.0
 44
0.0
 50
0.0
 71
           0
  0
VIEW
  5
45
100
AcDbSymbolTableRecord
100
AcDbViewTableRecord
  2
AM_VIEW1
 70
           0
 40
138.5
 10
289.308219909668
 20
280.399932861328
 41
238.394485473633
 11
0.0
 21
0.0
 31
1.0
 12
0.0
 22
0.0
 32
-1.0
 42
80.1295389473
 43
0.0
 44
0.0
 50
0.0
 71
           0
  0
VIEW
  5
46
100
AcDbSymbolTableRecord
100
AcDbViewTableRecord
  2
AM_VIEW2
 70
           0
 40
138.5
 10
240.913722991943
 20
280.399932861328
 41
238.394477844238
 11
0.0
 21
0.0
 31
1.0
 12
0.0
 22
0.0
 32
-1.0
 42
80.129540864575
 43
0.0
 44
0.0
 50
0.0
 71
           0
  0
VIEW
  5
47
100
AcDbSymbolTableRecord
100
AcDbViewTableRecord
  2
AM_VIEW3
 70
           0
 40
138.5
 10
289.308219909668
 20
141.899932861328
 41
238.394485473633
 11
0.0
 21
0.0
 31
1.0
 12
0.0
 22
0.0
 32
-1.0
 42
80.1295389473
 43
0.0
 44
0.0
 50
0.0
 71
           0
  0
VIEW
  5
48
100
AcDbSymbolTableRecord
100
AcDbViewTableRecord
  2
AM_VIEW4
 70
           0
 40
138.5
 10
240.913722991943
 20
141.899932861328
 41
238.394477844238
 11
0.0
 21
0.0
 31
1.0
 12
0.0
 22
0.0
 32
-1.0
 42
80.129540864575
 43
0.0
 44
0.0
 50
0.0
 71
           0
  0
VIEW
  5
49
100
AcDbSymbolTableRecord
100
AcDbViewTableRecord
  2
AM_VIEW5
 70
           0
 40
138.5
 10
265.110977172852
 20
211.149932861328
 41
238.394500732422
 11
0.0
 21
0.0
 31
1.0
 12
0.0
 22
0.0
 32
-1.0
 42
80.129535112751
 43
0.0
 44
0.0
 50
0.0
 71
           0
  0
VIEW
  5
4A
100
AcDbSymbolTableRecord
100
AcDbViewTableRecord
  2
AM_VIEW6
 70
           0
 40
276.997245788574
 10
265.110976219177
 20
211.149936676025
 41
476.784212112427
 11
0.0
 21
0.0
 31
1.0
 12
0.0
 22
0.0
 32
-1.0
 42
80.129541224282
 43
0.0
 44
0.0
 50
0.0
 71
           0
  0
VIEW
  5
4B
100
AcDbSymbolTableRecord
100
AcDbViewTableRecord
  2
VORNE
 70
           0
 40
508.127611160278
 10
-834.752746582031
 20
-232.142493247986
 41
629.012817382813
 11
0.0
 21
0.0
 31
1.0
 12
0.0
 22
0.0
 32
0.0
 42
49.249328040419
 43
0.0
 44
0.0
 50
0.0
 71
           0
  0
VIEW
  5
4C
100
AcDbSymbolTableRecord
100
AcDbViewTableRecord
  2
OBEN
 70
           0
 40
481.5673828125
 10
-4872.862060546875
 20
2346.230224609375
 41
700.46142578125
 11
0.0
 21
0.0
 31
1.0
 12
0.0
 22
0.0
 32
0.0
 42
44.400610923538
 43
0.0
 44
0.0
 50
0.0
 71
           0
  0
VIEW
  5
4D
100
AcDbSymbolTableRecord
100
AcDbViewTableRecord
  2
UNTEN
 70
           0
 40
687.953498840332
 10
-4875.9892578125
 20
-396.202632904053
 41
844.306640625
 11
0.0
 21
0.0
 31
1.0
 12
0.0
 22
0.0
 32
0.0
 42
49.506143894602
 43
0.0
 44
0.0
 50
0.0
 71
           0
  0
VIEW
  5
4E
100
AcDbSymbolTableRecord
100
AcDbViewTableRecord
  2
ACA_ALL
 70
           0
 40
310.396415710449
 10
-34.891899108887
 20
-56.513858795166
 41
428.571426391602
 11
0.0
 21
0.0
 31
1.0
 12
244.891903436565
 22
208.608096563435
 32
27.32621741859
 42
93.564869321236
 43
0.0
 44
0.0
 50
0.0
 71
           0
  0
VIEW
  5
4F
100
AcDbSymbolTableRecord
100
AcDbViewTableRecord
  2
ACA_OL
 70
           0
 40
106.465965270996
 10
-171.391906738281
 20
-155.375110626221
 41
147.0
 11
0.0
 21
0.0
 31
1.0
 12
244.891903436565
 22
208.608096563435
 32
27.32621741859
 42
93.564865943709
 43
0.0
 44
0.0
 50
0.0
 71
           0
  0
VIEW
  5
50
100
AcDbSymbolTableRecord
100
AcDbViewTableRecord
  2
ACA_OR
 70
           0
 40
106.465965270996
 10
101.608095169067
 20
-155.375110626221
 41
146.999996185303
 11
0.0
 21
0.0
 31
1.0
 12
244.891903436565
 22
208.608096563435
 32
27.32621741859
 42
93.564867536336
 43
0.0
 44
0.0
 50
0.0
 71
           0
  0
VIEW
  5
51
100
AcDbSymbolTableRecord
100
AcDbViewTableRecord
  2
ACA_UR
 70
           0
 40
106.465971946716
 10
101.608095169067
 20
37.674889087677
 41
146.999996185303
 11
0.0
 21
0.0
 31
1.0
 12
244.891903436565
 22
208.608096563435
 32
27.32621741859
 42
93.564871384543
 43
0.0
 44
0.0
 50
0.0
 71
           0
  0
VIEW
  5
52
100
AcDbSymbolTableRecord
100
AcDbViewTableRecord
  2
ACA_UL
 70
           0
 40
106.465971946716
 10
-171.391906738281
 20
37.674889087677
 41
147.0
 11
0.0
 21
0.0
 31
1.0
 12
244.891903436565
 22
208.608096563435
 32
27.32621741859
 42
93.564869791916
 43
0.0
 44
0.0
 50
0.0
 71
           0
  0
VIEW
  5
53
100
AcDbSymbolTableRecord
100
AcDbViewTableRecord
  2
ACA_ML
 70
           0
 40
106.920003414154
 10
-171.078460693359
 20
-60.108098268509
 41
147.626892089844
 11
0.0
 21
0.0
 31
1.0
 12
244.891903436565
 22
208.608096563435
 32
27.32621741859
 42
93.564869596922
 43
0.0
 44
0.0
 50
0.0
 71
           0
  0
VIEW
  5
54
100
AcDbSymbolTableRecord
100
AcDbViewTableRecord
  2
ACA_OM
 70
           0
 40
109.507850646973
 10
-34.891904830933
 20
-153.854167938232
 41
151.200000762939
 11
0.0
 21
0.0
 31
1.0
 12
244.891903436565
 22
208.608096563435
 32
27.32621741859
 42
93.564866000528
 43
0.0
 44
0.0
 50
0.0
 71
           0
  0
VIEW
  5
55
100
AcDbSymbolTableRecord
100
AcDbViewTableRecord
  2
ACA_MM
 70
           0
 40
109.507856845856
 10
-34.891904830933
 20
-58.814171552658
 41
151.200000762939
 11
0.0
 21
0.0
 31
1.0
 12
244.891903436565
 22
208.608096563435
 32
27.32621741859
 42
93.564869474604
 43
0.0
 44
0.0
 50
0.0
 71
           0
  0
VIEW
  5
56
100
AcDbSymbolTableRecord
100
AcDbViewTableRecord
  2
ACA_UM
 70
           0
 40
109.507857322693
 10
-34.891904830933
 20
39.195831775665
 41
151.200000762939
 11
0.0
 21
0.0
 31
1.0
 12
244.891903436565
 22
208.608096563435
 32
27.32621741859
 42
93.56486974184
 43
0.0
 44
0.0
 50
0.0
 71
           0
  0
VIEW
  5
57
100
AcDbSymbolTableRecord
100
AcDbViewTableRecord
  2
ACA_MR
 70
           0
 40
106.920003414154
 10
101.921541213989
 20
-60.108098268509
 41
147.626888275146
 11
0.0
 21
0.0
 31
1.0
 12
244.891903436565
 22
208.608096563435
 32
27.32621741859
 42
93.564871182785
 43
0.0
 44
0.0
 50
0.0
 71
           0
  0
VIEW
  5
58
100
AcDbSymbolTableRecord
100
AcDbViewTableRecord
  2
ACA_KOPF
 70
           0
 40
122.530544519424
 10
331.14981842041
 20
65.000001788139
 41
169.999984741211
 11
0.0
 21
0.0
 31
1.0
 12
0.0
 22
0.0
 32
0.0
 42
45.825904561434
 43
0.0
 44
0.0
 50
0.0
 71
           0
  0
VIEW
  5
59
100
AcDbSymbolTableRecord
100
AcDbViewTableRecord
  2
VIEW_12
 70
           0
 40
291.5
 10
-71.681758880615
 20
-62.858093261719
 41
346.420295715332
 11
0.0
 21
0.0
 31
1.0
 12
244.891903436565
 22
208.608096563435
 32
27.32621741859
 42
102.700785819527
 43
0.0
 44
0.0
 50
0.0
 71
           0
  0
VIEW
  5
5A
100
AcDbSymbolTableRecord
100
AcDbViewTableRecord
  2
VIEW_1
 70
           0
 40
308.608203887939
 10
182.129543304443
 20
194.06732749939
 41
194.327949523926
 11
0.0
 21
0.0
 31
1.0
 12
0.0
 22
0.0
 32
-1.0
 42
134.979541335521
 43
0.0
 44
0.0
 50
0.0
 71
           0
  0
VIEW
  5
5B
100
AcDbSymbolTableRecord
100
AcDbViewTableRecord
  2
VIEW
 70
           0
 40
1.0
 10
0.0
 20
0.0
 41
0.0
 11
0.0
 21
0.0
 31
1.0
 12
0.0
 22
0.0
 32
-1.0
 42
159.510831877321
 43
0.0
 44
0.0
 50
45.0
 71
           0
  0
VIEW
  5
5C
100
AcDbSymbolTableRecord
100
AcDbViewTableRecord
  2
VIEX
 70
           0
 40
1.0
 10
0.0
 20
0.0
 41
0.0
 11
0.0
 21
0.0
 31
1.0
 12
0.0
 22
0.0
 32
-1.0
 42
159.510831877321
 43
0.0
 44
0.0
 50
45.0
 71
           0
  0
VIEW
  5
5D
100
AcDbSymbolTableRecord
100
AcDbViewTableRecord
  2
VIEY
 70
           0
 40
1.0
 10
0.0
 20
0.0
 41
0.0
 11
0.0
 21
0.0
 31
1.0
 12
0.0
 22
0.0
 32
-1.0
 42
159.510831877321
 43
0.0
 44
0.0
 50
45.0
 71
           0
  0
VIEW
  5
5E
100
AcDbSymbolTableRecord
100
AcDbViewTableRecord
  2
VIEZ
 70
           0
 40
1.0
 10
0.0
 20
0.0
 41
0.0
 11
0.0
 21
0.0
 31
1.0
 12
0.0
 22
0.0
 32
-1.0
 42
159.510831877321
 43
0.0
 44
0.0
 50
45.0
 71
           0
  0
VIEW
  5
5F
100
AcDbSymbolTableRecord
100
AcDbViewTableRecord
  2
VIEZ0
 70
           0
 40
1.0
 10
0.0
 20
0.0
 41
0.0
 11
0.0
 21
0.0
 31
1.0
 12
0.0
 22
0.0
 32
-1.0
 42
159.510831877321
 43
0.0
 44
0.0
 50
45.0
 71
           0
  0
VIEW
  5
60
100
AcDbSymbolTableRecord
100
AcDbViewTableRecord
  2
VIEZ1
 70
           0
 40
1.0
 10
0.0
 20
0.0
 41
0.0
 11
0.0
 21
0.0
 31
1.0
 12
0.0
 22
0.0
 32
-1.0
 42
159.510831877321
 43
0.0
 44
0.0
 50
45.0
 71
           0
  0
VIEW
  5
61
100
AcDbSymbolTableRecord
100
AcDbViewTableRecord
  2
VIEZ2
 70
           0
 40
1.0
 10
0.0
 20
0.0
 41
0.0
 11
0.0
 21
0.0
 31
1.0
 12
0.0
 22
0.0
 32
-1.0
 42
159.510831877321
 43
0.0
 44
0.0
 50
45.0
 71
           0
  0
VIEW
  5
62
100
AcDbSymbolTableRecord
100
AcDbViewTableRecord
  2
VIEZ3
 70
           0
 40
1.0
 10
0.0
 20
0.0
 41
0.0
 11
0.0
 21
0.0
 31
1.0
 12
0.0
 22
0.0
 32
-1.0
 42
159.510831877321
 43
0.0
 44
0.0
 50
45.0
 71
           0
  0
VIEW
  5
63
100
AcDbSymbolTableRecord
100
AcDbViewTableRecord
  2
VIEZ4
 70
           0
 40
1.0
 10
0.0
 20
0.0
 41
0.0
 11
0.0
 21
0.0
 31
1.0
 12
0.0
 22
0.0
 32
-1.0
 42
159.510831877321
 43
0.0
 44
0.0
 50
45.0
 71
           0
  0
VIEW
  5
64
100
AcDbSymbolTableRecord
100
AcDbViewTableRecord
  2
VIEZ5
 70
           0
 40
1.0
 10
0.0
 20
0.0
 41
0.0
 11
0.0
 21
0.0
 31
1.0
 12
0.0
 22
0.0
 32
-1.0
 42
159.510831877321
 43
0.0
 44
0.0
 50
45.0
 71
           0
  0
VIEW
  5
65
100
AcDbSymbolTableRecord
100
AcDbViewTableRecord
  2
VIEZ6
 70
           0
 40
1.0
 10
0.0
 20
0.0
 41
0.0
 11
0.0
 21
0.0
 31
1.0
 12
0.0
 22
0.0
 32
-1.0
 42
159.510831877321
 43
0.0
 44
0.0
 50
45.0
 71
           0
  0
VIEW
  5
66
100
AcDbSymbolTableRecord
100
AcDbViewTableRecord
  2
VIEZ7
 70
           0
 40
1.0
 10
0.0
 20
0.0
 41
0.0
 11
0.0
 21
0.0
 31
1.0
 12
0.0
 22
0.0
 32
-1.0
 42
159.510831877321
 43
0.0
 44
0.0
 50
45.0
 71
           0
  0
VIEW
  5
67
100
AcDbSymbolTableRecord
100
AcDbViewTableRecord
  2
VIEZ8
 70
           0
 40
1.0
 10
0.0
 20
0.0
 41
0.0
 11
0.0
 21
0.0
 31
1.0
 12
0.0
 22
0.0
 32
-1.0
 42
159.510831877321
 43
0.0
 44
0.0
 50
45.0
 71
           0
  0
VIEW
  5
68
100
AcDbSymbolTableRecord
100
AcDbViewTableRecord
  2
VIEZ9
 70
           0
 40
1.0
 10
0.0
 20
0.0
 41
0.0
 11
0.0
 21
0.0
 31
1.0
 12
0.0
 22
0.0
 32
-1.0
 42
159.510831877321
 43
0.0
 44
0.0
 50
45.0
 71
           0
  0
VIEW
  5
69
100
AcDbSymbolTableRecord
100
AcDbViewTableRecord
  2
VIEZA
 70
           0
 40
1.0
 10
0.0
 20
0.0
 41
0.0
 11
0.0
 21
0.0
 31
1.0
 12
0.0
 22
0.0
 32
-1.0
 42
159.510831877321
 43
0.0
 44
0.0
 50
45.0
 71
           0
  0
VIEW
  5
6A
100
AcDbSymbolTableRecord
100
AcDbViewTableRecord
  2
VIEZB
 70
           0
 40
1.0
 10
0.0
 20
0.0
 41
0.0
 11
0.0
 21
0.0
 31
1.0
 12
0.0
 22
0.0
 32
-1.0
 42
159.510831877321
 43
0.0
 44
0.0
 50
45.0
 71
           0
  0
VIEW
  5
6B
100
AcDbSymbolTableRecord
100
AcDbViewTableRecord
  2
SEITENBREITE__UNTEN0
 70
           0
 40
200.230117797852
 10
154.35159778595
 20
91.803871154785
 41
334.670339584351
 11
0.0
 21
0.0
 31
1.0
 12
0.0
 22
0.0
 32
-1.0
 42
81.895531614663
 43
0.0
 44
0.0
 50
0.0
 71
           0
  0
VIEW
  5
6C
100
AcDbSymbolTableRecord
100
AcDbViewTableRecord
  2
SEITENBREITE__OBEN0
 70
           0
 40
200.230117797852
 10
154.35159778595
 20
116.832633972168
 41
334.670339584351
 11
0.0
 21
0.0
 31
1.0
 12
0.0
 22
0.0
 32
-1.0
 42
81.895531614663
 43
0.0
 44
0.0
 50
0.0
 71
           0
  0
VIEW
  5
6D
100
AcDbSymbolTableRecord
100
AcDbViewTableRecord
  2
SEITENBREITE__UNTEN00
 70
           0
 40
200.230117797852
 10
154.35159778595
 20
91.803871154785
 41
334.670339584351
 11
0.0
 21
0.0
 31
1.0
 12
0.0
 22
0.0
 32
-1.0
 42
81.895531614663
 43
0.0
 44
0.0
 50
0.0
 71
           0
  0
VIEW
  5
6E
100
AcDbSymbolTableRecord
100
AcDbViewTableRecord
  2
SEITENBREITE__OBEN00
 70
           0
 40
200.230117797852
 10
154.35159778595
 20
116.832633972168
 41
334.670339584351
 11
0.0
 21
0.0
 31
1.0
 12
0.0
 22
0.0
 32
-1.0
 42
81.895531614663
 43
0.0
 44
0.0
 50
0.0
 71
           0
  0
VIEW
  5
6F
100
AcDbSymbolTableRecord
100
AcDbViewTableRecord
  2
VIEW_8
 70
           0
 40
209.908094406128
 10
92.711702346802
 20
134.834694862366
 41
296.311428070068
 11
0.0
 21
0.0
 31
1.0
 12
0.0
 22
0.0
 32
-1.0
 42
92.206120532194
 43
0.0
 44
0.0
 50
0.0
 71
           0
  0
VIEW
  5
70
100
AcDbSymbolTableRecord
100
AcDbViewTableRecord
  2
SEITENBREITE__UNTEN000
 70
           0
 40
200.230117797852
 10
154.35159778595
 20
91.803871154785
 41
334.670339584351
 11
0.0
 21
0.0
 31
1.0
 12
0.0
 22
0.0
 32
-1.0
 42
81.895531614663
 43
0.0
 44
0.0
 50
0.0
 71
           0
  0
VIEW
  5
71
100
AcDbSymbolTableRecord
100
AcDbViewTableRecord
  2
SEITENBREITE__OBEN000
 70
           0
 40
200.230117797852
 10
154.35159778595
 20
116.832633972168
 41
334.670339584351
 11
0.0
 21
0.0
 31
1.0
 12
0.0
 22
0.0
 32
-1.0
 42
81.895531614663
 43
0.0
 44
0.0
 50
0.0
 71
           0
  0
VIEW
  5
72
100
AcDbSymbolTableRecord
100
AcDbViewTableRecord
  2
VIEW_11
 70
           0
 40
2975.290069580078
 10
-2098.80400198698
 20
-1017.616195678711
 41
4199.992581963539
 11
0.0
 21
0.0
 31
1.0
 12
0.0
 22
0.0
 32
-1.0
 42
92.20612123139
 43
0.0
 44
0.0
 50
0.0
 71
           0
  0
VIEW
  5
73
100
AcDbSymbolTableRecord
100
AcDbViewTableRecord
  2
SEITENBREITE__UNTEN1
 70
           0
 40
200.230117797852
 10
154.35159778595
 20
91.803871154785
 41
334.670339584351
 11
0.0
 21
0.0
 31
1.0
 12
0.0
 22
0.0
 32
-1.0
 42
81.895531614663
 43
0.0
 44
0.0
 50
0.0
 71
           0
  0
VIEW
  5
74
100
AcDbSymbolTableRecord
100
AcDbViewTableRecord
  2
SEITENBREITE__OBEN1
 70
           0
 40
200.230117797852
 10
154.35159778595
 20
116.832633972168
 41
334.670339584351
 11
0.0
 21
0.0
 31
1.0
 12
0.0
 22
0.0
 32
-1.0
 42
81.895531614663
 43
0.0
 44
0.0
 50
0.0
 71
           0
  0
VIEW
  5
75
100
AcDbSymbolTableRecord
100
AcDbViewTableRecord
  2
SEITENBREITE__UNTEN2
 70
           0
 40
200.230117797852
 10
154.35159778595
 20
91.803871154785
 41
334.670339584351
 11
0.0
 21
0.0
 31
1.0
 12
0.0
 22
0.0
 32
-1.0
 42
81.895531614663
 43
0.0
 44
0.0
 50
0.0
 71
           0
  0
VIEW
  5
76
100
AcDbSymbolTableRecord
100
AcDbViewTableRecord
  2
SEITENBREITE__OBEN2
 70
           0
 40
200.230117797852
 10
154.35159778595
 20
116.832633972168
 41
334.670339584351
 11
0.0
 21
0.0
 31
1.0
 12
0.0
 22
0.0
 32
-1.0
 42
81.895531614663
 43
0.0
 44
0.0
 50
0.0
 71
           0
  0
ENDTAB
  0
TABLE
  2
UCS
  5
6
100
AcDbSymbolTable
 70
          11
  0
UCS
  5
77
100
AcDbSymbolTableRecord
100
AcDbUCSTableRecord
  2
KIKA
 70
           0
 10
50.0
 20
50.0
 30
0.0
 11
1.0
 21
0.0
 31
0.0
 12
0.0
 22
1.0
 32
0.0
  0
UCS
  5
78
100
AcDbSymbolTableRecord
100
AcDbUCSTableRecord
  2
ACA_VORNE
 70
           0
 10
0.0
 20
0.0
 30
0.0
 11
1.0
 21
0.0
 31
0.0
 12
0.0
 22
0.0
 32
1.0
  0
UCS
  5
79
100
AcDbSymbolTableRecord
100
AcDbUCSTableRecord
  2
ACA_RECHTS
 70
           0
 10
0.0
 20
0.0
 30
0.0
 11
0.0
 21
1.0
 31
0.0
 12
0.0
 22
0.0
 32
1.0
  0
UCS
  5
7A
100
AcDbSymbolTableRecord
100
AcDbUCSTableRecord
  2
ACA_LINKS
 70
           0
 10
0.0
 20
0.0
 30
0.0
 11
0.0
 21
-1.0
 31
0.0
 12
0.0
 22
0.0
 32
1.0
  0
UCS
  5
7B
100
AcDbSymbolTableRecord
100
AcDbUCSTableRecord
  2
ACA_HINTEN
 70
           0
 10
0.0
 20
0.0
 30
0.0
 11
-1.0
 21
0.0000000000000001
 31
0.0
 12
-0.0
 22
-0.0000000000174533
 32
1.0
  0
UCS
  5
7C
100
AcDbSymbolTableRecord
100
AcDbUCSTableRecord
  2
ACA_OBEN
 70
           0
 10
0.0
 20
0.0
 30
0.0
 11
1.0
 21
0.0
 31
0.0
 12
0.0
 22
1.0
 32
0.0
  0
UCS
  5
7D
100
AcDbSymbolTableRecord
100
AcDbUCSTableRecord
  2
ACA_UNTEN
 70
           0
 10
0.0
 20
0.0
 30
0.0
 11
1.0
 21
0.0
 31
0.0
 12
0.0
 22
-1.0
 32
0.0
  0
UCS
  5
7E
100
AcDbSymbolTableRecord
100
AcDbUCSTableRecord
  2
CK_VIEW_1
 70
           0
 10
0.0
 20
0.0
 30
1.0
 11
1.0
 21
0.0
 31
0.0
 12
0.0
 22
1.0
 32
0.0
  0
UCS
  5
7F
100
AcDbSymbolTableRecord
100
AcDbUCSTableRecord
  2
MO_001_VIEW_PV_P
 70
           0
 10
0.0
 20
0.0
 30
0.0
 11
1.0
 21
0.0
 31
0.0
 12
0.0
 22
1.0
 32
0.0
  0
UCS
  5
80
100
AcDbSymbolTableRecord
100
AcDbUCSTableRecord
  2
MO_001_VIEW_RA_P
 70
           0
 10
0.0
 20
0.0
 30
0.0
 11
1.0
 21
0.0
 31
0.0
 12
0.0
 22
1.0
 32
0.0
  0
UCS
  5
81
100
AcDbSymbolTableRecord
100
AcDbUCSTableRecord
  2
MO_001_VIEW_PV_NP_000122
 70
           0
 10
0.0
 20
0.0
 30
0.0
 11
1.0
 21
0.0
 31
0.0
 12
0.0
 22
1.0
 32
0.0
  0
ENDTAB
  0
TABLE
  2
APPID
  5
8
100
AcDbSymbolTable
 70
           2
  0
APPID
  5
16
100
AcDbSymbolTableRecord
100
AcDbRegAppTableRecord
  2
ACAD
 70
           0
  0
APPID
  5
1D
100
AcDbSymbolTableRecord
100
AcDbRegAppTableRecord
  2
TCAD
 70
           0
  0
ENDTAB
  0
TABLE
  2
DIMSTYLE
  5
9
100
AcDbSymbolTable
 70
           1
  0
DIMSTYLE
105
18
100
AcDbSymbolTableRecord
100
AcDbDimStyleTableRecord
  2
STANDARD
 70
           0
  3

  4

  5

  6

  7

 40
2.5
 41
3.0
 42
1.0
 43
5.0
 44
2.0
 45
0.1
 46
0.0
 47
0.0
 48
0.0
 71
           0
 72
           0
 73
           1
 74
           1
 75
           0
 76
           0
 77
           0
 78
          11
140
3.0
141
0.09
142
0.0
143
1.0
144
1.0
145
0.0
146
1.0
147
2.0
170
           0
171
           2
172
           1
173
           0
174
           0
175
           0
176
         256
177
         256
178
         256
270
           2
271
           2
272
           3
273
           2
274
           8
275
           0
280
           0
281
           0
282
           0
283
           1
284
           0
285
           0
286
           8
287
           0
288
           0
340
17
  0
ENDTAB
  0
TABLE
  2
BLOCK_RECORD
  5
1
100
AcDbSymbolTable
 70
          16
  0
BLOCK_RECORD
  5
A
100
AcDbSymbolTableRecord
100
AcDbBlockTableRecord
  2
*MODEL_SPACE
  0
BLOCK_RECORD
  5
B
100
AcDbSymbolTableRecord
100
AcDbBlockTableRecord
  2
*PAPER_SPACE
  0
BLOCK_RECORD
  5
273
100
AcDbSymbolTableRecord
100
AcDbBlockTableRecord
  2
*D0
  0
BLOCK_RECORD
  5
280
100
AcDbSymbolTableRecord
100
AcDbBlockTableRecord
  2
*D1
  0
BLOCK_RECORD
  5
28D
100
AcDbSymbolTableRecord
100
AcDbBlockTableRecord
  2
*D2
  0
BLOCK_RECORD
  5
29A
100
AcDbSymbolTableRecord
100
AcDbBlockTableRecord
  2
*D3
  0
BLOCK_RECORD
  5
2A7
100
AcDbSymbolTableRecord
100
AcDbBlockTableRecord
  2
*D4
  0
BLOCK_RECORD
  5
2B4
100
AcDbSymbolTableRecord
100
AcDbBlockTableRecord
  2
*D5
  0
BLOCK_RECORD
  5
2C1
100
AcDbSymbolTableRecord
100
AcDbBlockTableRecord
  2
*D6
  0
BLOCK_RECORD
  5
2CE
100
AcDbSymbolTableRecord
100
AcDbBlockTableRecord
  2
*D7
  0
BLOCK_RECORD
  5
2DB
100
AcDbSymbolTableRecord
100
AcDbBlockTableRecord
  2
*D8
  0
BLOCK_RECORD
  5
2E8
100
AcDbSymbolTableRecord
100
AcDbBlockTableRecord
  2
*D9
  0
BLOCK_RECORD
  5
2F5
100
AcDbSymbolTableRecord
100
AcDbBlockTableRecord
  2
*D10
  0
BLOCK_RECORD
  5
304
100
AcDbSymbolTableRecord
100
AcDbBlockTableRecord
  2
*D11
  0
BLOCK_RECORD
  5
311
100
AcDbSymbolTableRecord
100
AcDbBlockTableRecord
  2
*D12
  0
BLOCK_RECORD
  5
31E
100
AcDbSymbolTableRecord
100
AcDbBlockTableRecord
  2
*D13
  0
BLOCK_RECORD
  5
33C
100
AcDbSymbolTableRecord
100
AcDbBlockTableRecord
  2
*D14
  0
BLOCK_RECORD
  5
34A
100
AcDbSymbolTableRecord
100
AcDbBlockTableRecord
  2
*D15
  0
ENDTAB
  0
ENDSEC
  0
SECTION
  2
BLOCKS
  0
BLOCK
  5
D
100
AcDbEntity
  8
0
100
AcDbBlockBegin
  2
*MODEL_SPACE
 70
           0
 10
0.0
 20
0.0
 30
0.0
  3
*MODEL_SPACE
  1

  0
ENDBLK
  5
E
100
AcDbEntity
  8
0
100
AcDbBlockEnd
  0
BLOCK
  5
F
100
AcDbEntity
 67
           1
  8
0
100
AcDbBlockBegin
  2
*PAPER_SPACE
 70
           0
 10
0.0
 20
0.0
 30
0.0
  3
*PAPER_SPACE
  1

  0
ENDBLK
  5
10
100
AcDbEntity
 67
           1
  8
0
100
AcDbBlockEnd
  0
BLOCK
  5
274
100
AcDbEntity
  8
0
100
AcDbBlockBegin
  2
*D0
 70
           1
 10
0.0
 20
0.0
 30
0.0
  3
*D0
  1

  0
LINE
  5
275
100
AcDbEntity
  8
0
  6
CONTINUOUS
100
AcDbLine
 10
-1212.061543233956
 20
251.98167160867
 30
0.0
 11
-1212.061543233956
 21
289.864601615556
 31
0.0
1001
TCAD
1000
TCW_ATTRIBUTE
1002
{
1000
%%c<58>
1002
}
  0
LINE
  5
276
100
AcDbEntity
  8
0
  6
CONTINUOUS
100
AcDbLine
 10
-1270.061543233956
 20
251.98167160867
 30
0.0
 11
-1270.061543233956
 21
289.864601615556
 31
0.0
1001
TCAD
1000
TCW_ATTRIBUTE
1002
{
1000
%%c<58>
1002
}
  0
LWPOLYLINE
  5
277
100
AcDbEntity
  8
0
  6
CONTINUOUS
100
AcDbPolyline
 90
        4
 70
           0
 10
-1219.561543233956
 20
284.864601615556
 10
-1219.561543233956
 20
284.864601615556
 10
-1219.561543233956
 20
284.864601615556
 10
-1227.983540304268
 20
284.864601615556
1001
TCAD
1000
TCW_ATTRIBUTE
1002
{
1000
%%c<58>
1002
}
  0
LWPOLYLINE
  5
278
100
AcDbEntity
  8
0
  6
CONTINUOUS
100
AcDbPolyline
 90
        4
 70
           0
 10
-1262.561543233956
 20
284.864601615556
 10
-1262.561543233956
 20
284.864601615556
 10
-1262.561543233956
 20
284.864601615556
 10
-1254.139546163643
 20
284.864601615556
1001
TCAD
1000
TCW_ATTRIBUTE
1002
{
1000
%%c<58>
1002
}
  0
LWPOLYLINE
  5
27A
102
{ACAD_REACTORS
330
279
102
}
100
AcDbEntity
  8
0
  6
CONTINUOUS
100
AcDbPolyline
 90
        4
 70
           0
 10
-1212.061543233956
 20
284.864601615556
 10
-1219.561543233956
 20
285.839601615556
 10
-1219.561543233956
 20
283.889601615556
 10
-1212.061543233956
 20
284.864601615556
1001
TCAD
1000
TCW_ATTRIBUTE
1002
{
1000
%%c<58>
1002
}
  0
HATCH
  5
279
100
AcDbEntity
  8
0
  6
CONTINUOUS
100
AcDbHatch
 10
0.0
 20
0.0
 30
0.0
210
0.0
220
0.0
230
1.0
  2
SOLID
 70
           1
 71
           1
 91
        1
 92
        3
 72
           0
 73
           1
 93
        3
 10
-1212.0615432339555
 20
284.86460161555578
 10
-1219.5615432339555
 20
285.83960161555581
 10
-1219.5615432339555
 20
283.88960161555576
 97
        1
330
27A
 75
           0
 76
           0
 98
        0
1001
TCAD
1000
TCW_ATTRIBUTE
1002
{
1000
%%c<58>
1002
}
  0
LWPOLYLINE
  5
27C
102
{ACAD_REACTORS
330
27B
102
}
100
AcDbEntity
  8
0
  6
CONTINUOUS
100
AcDbPolyline
 90
        4
 70
           0
 10
-1270.061543233956
 20
284.864601615556
 10
-1262.561543233956
 20
283.889601615556
 10
-1262.561543233956
 20
285.839601615556
 10
-1270.061543233956
 20
284.864601615556
1001
TCAD
1000
TCW_ATTRIBUTE
1002
{
1000
%%c<58>
1002
}
  0
HATCH
  5
27B
100
AcDbEntity
  8
0
  6
CONTINUOUS
100
AcDbHatch
 10
0.0
 20
0.0
 30
0.0
210
0.0
220
0.0
230
1.0
  2
SOLID
 70
           1
 71
           1
 91
        1
 92
        3
 72
           0
 73
           1
 93
        3
 10
-1270.0615432339559
 20
284.86460161555578
 10
-1262.5615432339559
 20
283.88960161555576
 10
-1262.5615432339559
 20
285.83960161555581
 97
        1
330
27C
 75
           0
 76
           0
 98
        0
1001
TCAD
1000
TCW_ATTRIBUTE
1002
{
1000
%%c<58>
1002
}
  0
MTEXT
  5
27D
100
AcDbEntity
  8
0
  6
CONTINUOUS
100
AcDbMText
 10
-1241.061543233956
 20
284.864601615556
 30
0.0
 40
7.5
 41
0.0
 71
           5
 72
           1
  1
\A1;%%c58
1001
TCAD
1000
TCW_REFPOINT
1002
{
1010
-1241.061543233956
1020
284.864601615556
1030
0.0
1002
}
1000
TCW_ATTRIBUTE
1002
{
1000
%%c<58>
1002
}
  0
ENDBLK
  5
27E
100
AcDbEntity
  8
0
100
AcDbBlockEnd
  0
BLOCK
  5
281
100
AcDbEntity
  8
0
100
AcDbBlockBegin
  2
*D1
 70
           1
 10
0.0
 20
0.0
 30
0.0
  3
*D1
  1

  0
LINE
  5
282
100
AcDbEntity
  8
0
  6
CONTINUOUS
100
AcDbLine
 10
-1258.561543233956
 20
166.68167160867
 30
0.0
 11
-1340.33591101063
 21
166.68167160867
 31
0.0
1001
TCAD
1000
TCW_ATTRIBUTE
1002
{
1000
80
1002
}
  0
LINE
  5
283
100
AcDbEntity
  8
0
  6
CONTINUOUS
100
AcDbLine
 10
-1272.561543233956
 20
249.48167160867
 30
0.0
 11
-1340.33591101063
 21
249.48167160867
 31
0.0
1001
TCAD
1000
TCW_ATTRIBUTE
1002
{
1000
80
1002
}
  0
LWPOLYLINE
  5
284
100
AcDbEntity
  8
0
  6
CONTINUOUS
100
AcDbPolyline
 90
        4
 70
           0
 10
-1335.33591101063
 20
174.18167160867
 10
-1335.33591101063
 20
174.18167160867
 10
-1335.33591101063
 20
174.18167160867
 10
-1335.33591101063
 20
197.96692551492
1001
TCAD
1000
TCW_ATTRIBUTE
1002
{
1000
80
1002
}
  0
LWPOLYLINE
  5
285
100
AcDbEntity
  8
0
  6
CONTINUOUS
100
AcDbPolyline
 90
        4
 70
           0
 10
-1335.33591101063
 20
241.98167160867
 10
-1335.33591101063
 20
241.98167160867
 10
-1335.33591101063
 20
241.98167160867
 10
-1335.33591101063
 20
218.19641770242
1001
TCAD
1000
TCW_ATTRIBUTE
1002
{
1000
80
1002
}
  0
LWPOLYLINE
  5
287
102
{ACAD_REACTORS
330
286
102
}
100
AcDbEntity
  8
0
  6
CONTINUOUS
100
AcDbPolyline
 90
        4
 70
           0
 10
-1335.33591101063
 20
166.68167160867
 10
-1334.36091101063
 20
174.18167160867
 10
-1336.31091101063
 20
174.18167160867
 10
-1335.33591101063
 20
166.68167160867
1001
TCAD
1000
TCW_ATTRIBUTE
1002
{
1000
80
1002
}
  0
HATCH
  5
286
100
AcDbEntity
  8
0
  6
CONTINUOUS
100
AcDbHatch
 10
0.0
 20
0.0
 30
0.0
210
0.0
220
0.0
230
1.0
  2
SOLID
 70
           1
 71
           1
 91
        1
 92
        3
 72
           0
 73
           1
 93
        3
 10
-1335.3359110106303
 20
166.68167160866986
 10
-1334.3609110106304
 20
174.18167160866986
 10
-1336.3109110106302
 20
174.18167160866986
 97
        1
330
287
 75
           0
 76
           0
 98
        0
1001
TCAD
1000
TCW_ATTRIBUTE
1002
{
1000
80
1002
}
  0
LWPOLYLINE
  5
289
102
{ACAD_REACTORS
330
288
102
}
100
AcDbEntity
  8
0
  6
CONTINUOUS
100
AcDbPolyline
 90
        4
 70
           0
 10
-1335.33591101063
 20
249.48167160867
 10
-1336.31091101063
 20
241.98167160867
 10
-1334.36091101063
 20
241.98167160867
 10
-1335.33591101063
 20
249.48167160867
1001
TCAD
1000
TCW_ATTRIBUTE
1002
{
1000
80
1002
}
  0
HATCH
  5
288
100
AcDbEntity
  8
0
  6
CONTINUOUS
100
AcDbHatch
 10
0.0
 20
0.0
 30
0.0
210
0.0
220
0.0
230
1.0
  2
SOLID
 70
           1
 71
           1
 91
        1
 92
        3
 72
           0
 73
           1
 93
        3
 10
-1335.3359110106303
 20
249.48167160866984
 10
-1336.3109110106302
 20
241.98167160866984
 10
-1334.3609110106304
 20
241.98167160866984
 97
        1
330
289
 75
           0
 76
           0
 98
        0
1001
TCAD
1000
TCW_ATTRIBUTE
1002
{
1000
80
1002
}
  0
MTEXT
  5
28A
100
AcDbEntity
  8
0
  6
CONTINUOUS
100
AcDbMText
 10
-1335.33591101063
 20
208.08167160867
 30
0.0
 40
7.5
 41
0.0
 71
           5
 72
           1
  1
\A1;80
 11
0.0
 21
1.0
 31
0.0
1001
TCAD
1000
TCW_REFPOINT
1002
{
1010
-1335.33591101063
1020
208.08167160867
1030
0.0
1002
}
1000
TCW_ATTRIBUTE
1002
{
1000
80
1002
}
  0
ENDBLK
  5
28B
100
AcDbEntity
  8
0
100
AcDbBlockEnd
  0
BLOCK
  5
28E
100
AcDbEntity
  8
0
100
AcDbBlockBegin
  2
*D2
 70
           1
 10
0.0
 20
0.0
 30
0.0
  3
*D2
  1

  0
LINE
  5
28F
100
AcDbEntity
  8
0
  6
CONTINUOUS
100
AcDbLine
 10
-1292.561543233956
 20
46.38167160867
 30
0.0
 11
-1340.33591101063
 21
46.38167160867
 31
0.0
1001
TCAD
1000
TCW_ATTRIBUTE
1002
{
1000
<120,5>
1002
}
  0
LINE
  5
290
100
AcDbEntity
  8
0
  6
CONTINUOUS
100
AcDbLine
 10
-1243.561543233956
 20
166.68167160867
 30
0.0
 11
-1340.33591101063
 21
166.68167160867
 31
0.0
1001
TCAD
1000
TCW_ATTRIBUTE
1002
{
1000
<120,5>
1002
}
  0
LWPOLYLINE
  5
291
100
AcDbEntity
  8
0
  6
CONTINUOUS
100
AcDbPolyline
 90
        4
 70
           0
 10
-1335.33591101063
 20
53.88167160867
 10
-1335.33591101063
 20
53.88167160867
 10
-1335.33591101063
 20
53.88167160867
 10
-1335.33591101063
 20
90.270685280545
1001
TCAD
1000
TCW_ATTRIBUTE
1002
{
1000
<120,5>
1002
}
  0
LWPOLYLINE
  5
292
100
AcDbEntity
  8
0
  6
CONTINUOUS
100
AcDbPolyline
 90
        4
 70
           0
 10
-1335.33591101063
 20
159.18167160867
 10
-1335.33591101063
 20
159.18167160867
 10
-1335.33591101063
 20
159.18167160867
 10
-1335.33591101063
 20
122.792657936795
1001
TCAD
1000
TCW_ATTRIBUTE
1002
{
1000
<120,5>
1002
}
  0
LWPOLYLINE
  5
294
102
{ACAD_REACTORS
330
293
102
}
100
AcDbEntity
  8
0
  6
CONTINUOUS
100
AcDbPolyline
 90
        4
 70
           0
 10
-1335.33591101063
 20
46.38167160867
 10
-1334.36091101063
 20
53.88167160867
 10
-1336.31091101063
 20
53.88167160867
 10
-1335.33591101063
 20
46.38167160867
1001
TCAD
1000
TCW_ATTRIBUTE
1002
{
1000
<120,5>
1002
}
  0
HATCH
  5
293
100
AcDbEntity
  8
0
  6
CONTINUOUS
100
AcDbHatch
 10
0.0
 20
0.0
 30
0.0
210
0.0
220
0.0
230
1.0
  2
SOLID
 70
           1
 71
           1
 91
        1
 92
        3
 72
           0
 73
           1
 93
        3
 10
-1335.3359110106303
 20
46.381671608669834
 10
-1334.3609110106304
 20
53.881671608669834
 10
-1336.3109110106302
 20
53.881671608669834
 97
        1
330
294
 75
           0
 76
           0
 98
        0
1001
TCAD
1000
TCW_ATTRIBUTE
1002
{
1000
<120,5>
1002
}
  0
LWPOLYLINE
  5
296
102
{ACAD_REACTORS
330
295
102
}
100
AcDbEntity
  8
0
  6
CONTINUOUS
100
AcDbPolyline
 90
        4
 70
           0
 10
-1335.33591101063
 20
166.68167160867
 10
-1336.31091101063
 20
159.18167160867
 10
-1334.36091101063
 20
159.18167160867
 10
-1335.33591101063
 20
166.68167160867
1001
TCAD
1000
TCW_ATTRIBUTE
1002
{
1000
<120,5>
1002
}
  0
HATCH
  5
295
100
AcDbEntity
  8
0
  6
CONTINUOUS
100
AcDbHatch
 10
0.0
 20
0.0
 30
0.0
210
0.0
220
0.0
230
1.0
  2
SOLID
 70
           1
 71
           1
 91
        1
 92
        3
 72
           0
 73
           1
 93
        3
 10
-1335.3359110106303
 20
166.68167160866997
 10
-1336.3109110106302
 20
159.18167160866997
 10
-1334.3609110106304
 20
159.18167160866997
 97
        1
330
296
 75
           0
 76
           0
 98
        0
1001
TCAD
1000
TCW_ATTRIBUTE
1002
{
1000
<120,5>
1002
}
  0
MTEXT
  5
297
100
AcDbEntity
  8
0
  6
CONTINUOUS
100
AcDbMText
 10
-1335.33591101063
 20
106.53167160867
 30
0.0
 40
7.5
 41
0.0
 71
           5
 72
           1
  1
\A1;120,5
 11
0.0
 21
1.0
 31
0.0
1001
TCAD
1000
TCW_REFPOINT
1002
{
1010
-1335.33591101063
1020
106.53167160867
1030
0.0
1002
}
1000
TCW_ATTRIBUTE
1002
{
1000
<120,5>
1002
}
  0
ENDBLK
  5
298
100
AcDbEntity
  8
0
100
AcDbBlockEnd
  0
BLOCK
  5
29B
100
AcDbEntity
  8
0
100
AcDbBlockBegin
  2
*D3
 70
           1
 10
0.0
 20
0.0
 30
0.0
  3
*D3
  1

  0
LINE
  5
29C
100
AcDbEntity
  8
0
  6
CONTINUOUS
100
AcDbLine
 10
-1292.561543233956
 20
46.38167160867
 30
0.0
 11
-1340.33591101063
 21
46.38167160867
 31
0.0
1001
TCAD
1000
TCW_ATTRIBUTE
1002
{
1000
<76>
1002
}
  0
LINE
  5
29D
100
AcDbEntity
  8
0
  6
CONTINUOUS
100
AcDbLine
 10
-1292.561543233956
 20
-29.61832839133
 30
0.0
 11
-1340.33591101063
 21
-29.61832839133
 31
0.0
1001
TCAD
1000
TCW_ATTRIBUTE
1002
{
1000
<76>
1002
}
  0
LWPOLYLINE
  5
29E
100
AcDbEntity
  8
0
  6
CONTINUOUS
100
AcDbPolyline
 90
        4
 70
           0
 10
-1335.33591101063
 20
38.88167160867
 10
-1335.33591101063
 20
38.88167160867
 10
-1335.33591101063
 20
38.88167160867
 10
-1335.33591101063
 20
18.49641770242
1001
TCAD
1000
TCW_ATTRIBUTE
1002
{
1000
<76>
1002
}
  0
LWPOLYLINE
  5
29F
100
AcDbEntity
  8
0
  6
CONTINUOUS
100
AcDbPolyline
 90
        4
 70
           0
 10
-1335.33591101063
 20
-22.11832839133
 10
-1335.33591101063
 20
-22.11832839133
 10
-1335.33591101063
 20
-22.11832839133
 10
-1335.33591101063
 20
-1.73307448508
1001
TCAD
1000
TCW_ATTRIBUTE
1002
{
1000
<76>
1002
}
  0
LWPOLYLINE
  5
2A1
102
{ACAD_REACTORS
330
2A0
102
}
100
AcDbEntity
  8
0
  6
CONTINUOUS
100
AcDbPolyline
 90
        4
 70
           0
 10
-1335.33591101063
 20
46.38167160867
 10
-1336.31091101063
 20
38.88167160867
 10
-1334.36091101063
 20
38.88167160867
 10
-1335.33591101063
 20
46.38167160867
1001
TCAD
1000
TCW_ATTRIBUTE
1002
{
1000
<76>
1002
}
  0
HATCH
  5
2A0
100
AcDbEntity
  8
0
  6
CONTINUOUS
100
AcDbHatch
 10
0.0
 20
0.0
 30
0.0
210
0.0
220
0.0
230
1.0
  2
SOLID
 70
           1
 71
           1
 91
        1
 92
        3
 72
           0
 73
           1
 93
        3
 10
-1335.3359110106303
 20
46.381671608669834
 10
-1336.3109110106302
 20
38.881671608669834
 10
-1334.3609110106304
 20
38.881671608669834
 97
        1
330
2A1
 75
           0
 76
           0
 98
        0
1001
TCAD
1000
TCW_ATTRIBUTE
1002
{
1000
<76>
1002
}
  0
LWPOLYLINE
  5
2A3
102
{ACAD_REACTORS
330
2A2
102
}
100
AcDbEntity
  8
0
  6
CONTINUOUS
100
AcDbPolyline
 90
        4
 70
           0
 10
-1335.33591101063
 20
-29.61832839133
 10
-1334.36091101063
 20
-22.11832839133
 10
-1336.31091101063
 20
-22.11832839133
 10
-1335.33591101063
 20
-29.61832839133
1001
TCAD
1000
TCW_ATTRIBUTE
1002
{
1000
<76>
1002
}
  0
HATCH
  5
2A2
100
AcDbEntity
  8
0
  6
CONTINUOUS
100
AcDbHatch
 10
0.0
 20
0.0
 30
0.0
210
0.0
220
0.0
230
1.0
  2
SOLID
 70
           1
 71
           1
 91
        1
 92
        3
 72
           0
 73
           1
 93
        3
 10
-1335.3359110106303
 20
-29.61832839133001
 10
-1334.3609110106304
 20
-22.11832839133001
 10
-1336.3109110106302
 20
-22.11832839133001
 97
        1
330
2A3
 75
           0
 76
           0
 98
        0
1001
TCAD
1000
TCW_ATTRIBUTE
1002
{
1000
<76>
1002
}
  0
MTEXT
  5
2A4
100
AcDbEntity
  8
0
  6
CONTINUOUS
100
AcDbMText
 10
-1335.33591101063
 20
8.38167160867
 30
0.0
 40
7.5
 41
0.0
 71
           5
 72
           1
  1
\A1;76
 11
0.0
 21
1.0
 31
0.0
1001
TCAD
1000
TCW_REFPOINT
1002
{
1010
-1335.33591101063
1020
8.38167160867
1030
0.0
1002
}
1000
TCW_ATTRIBUTE
1002
{
1000
<76>
1002
}
  0
ENDBLK
  5
2A5
100
AcDbEntity
  8
0
100
AcDbBlockEnd
  0
BLOCK
  5
2A8
100
AcDbEntity
  8
0
100
AcDbBlockBegin
  2
*D4
 70
           1
 10
0.0
 20
0.0
 30
0.0
  3
*D4
  1

  0
LINE
  5
2A9
100
AcDbEntity
  8
0
  6
CONTINUOUS
100
AcDbLine
 10
-1241.061543233956
 20
-47.11832839133
 30
0.0
 11
-1241.061543233956
 21
-75.095132588344
 31
0.0
1001
TCAD
1000
TCW_ATTRIBUTE
1002
{
1000
<50>
1002
}
  0
LINE
  5
2AA
100
AcDbEntity
  8
0
  6
CONTINUOUS
100
AcDbLine
 10
-1291.061543233955
 20
-31.11832839133
 30
0.0
 11
-1291.061543233955
 21
-75.095132588344
 31
0.0
1001
TCAD
1000
TCW_ATTRIBUTE
1002
{
1000
<50>
1002
}
  0
LWPOLYLINE
  5
2AB
100
AcDbEntity
  8
0
  6
CONTINUOUS
100
AcDbPolyline
 90
        4
 70
           0
 10
-1248.561543233956
 20
-70.095132588344
 10
-1248.561543233956
 20
-70.095132588344
 10
-1248.561543233956
 20
-70.095132588344
 10
-1255.946797140206
 20
-70.095132588344
1001
TCAD
1000
TCW_ATTRIBUTE
1002
{
1000
<50>
1002
}
  0
LWPOLYLINE
  5
2AC
100
AcDbEntity
  8
0
  6
CONTINUOUS
100
AcDbPolyline
 90
        4
 70
           0
 10
-1283.561543233955
 20
-70.095132588344
 10
-1283.561543233955
 20
-70.095132588344
 10
-1283.561543233955
 20
-70.095132588344
 10
-1276.176289327706
 20
-70.095132588344
1001
TCAD
1000
TCW_ATTRIBUTE
1002
{
1000
<50>
1002
}
  0
LWPOLYLINE
  5
2AE
102
{ACAD_REACTORS
330
2AD
102
}
100
AcDbEntity
  8
0
  6
CONTINUOUS
100
AcDbPolyline
 90
        4
 70
           0
 10
-1241.061543233956
 20
-70.095132588344
 10
-1248.561543233956
 20
-69.120132588344
 10
-1248.561543233956
 20
-71.070132588344
 10
-1241.061543233956
 20
-70.095132588344
1001
TCAD
1000
TCW_ATTRIBUTE
1002
{
1000
<50>
1002
}
  0
HATCH
  5
2AD
100
AcDbEntity
  8
0
  6
CONTINUOUS
100
AcDbHatch
 10
0.0
 20
0.0
 30
0.0
210
0.0
220
0.0
230
1.0
  2
SOLID
 70
           1
 71
           1
 91
        1
 92
        3
 72
           0
 73
           1
 93
        3
 10
-1241.0615432339557
 20
-70.095132588344356
 10
-1248.5615432339557
 20
-69.120132588344362
 10
-1248.5615432339557
 20
-71.07013258834435
 97
        1
330
2AE
 75
           0
 76
           0
 98
        0
1001
TCAD
1000
TCW_ATTRIBUTE
1002
{
1000
<50>
1002
}
  0
LWPOLYLINE
  5
2B0
102
{ACAD_REACTORS
330
2AF
102
}
100
AcDbEntity
  8
0
  6
CONTINUOUS
100
AcDbPolyline
 90
        4
 70
           0
 10
-1291.061543233955
 20
-70.095132588344
 10
-1283.561543233955
 20
-71.070132588344
 10
-1283.561543233955
 20
-69.120132588344
 10
-1291.061543233955
 20
-70.095132588344
1001
TCAD
1000
TCW_ATTRIBUTE
1002
{
1000
<50>
1002
}
  0
HATCH
  5
2AF
100
AcDbEntity
  8
0
  6
CONTINUOUS
100
AcDbHatch
 10
0.0
 20
0.0
 30
0.0
210
0.0
220
0.0
230
1.0
  2
SOLID
 70
           1
 71
           1
 91
        1
 92
        3
 72
           0
 73
           1
 93
        3
 10
-1291.0615432339553
 20
-70.095132588344356
 10
-1283.5615432339553
 20
-71.07013258834435
 10
-1283.5615432339553
 20
-69.120132588344362
 97
        1
330
2B0
 75
           0
 76
           0
 98
        0
1001
TCAD
1000
TCW_ATTRIBUTE
1002
{
1000
<50>
1002
}
  0
MTEXT
  5
2B1
100
AcDbEntity
  8
0
  6
CONTINUOUS
100
AcDbMText
 10
-1266.061543233956
 20
-70.095132588344
 30
0.0
 40
7.5
 41
0.0
 71
           5
 72
           1
  1
\A1;50
1001
TCAD
1000
TCW_REFPOINT
1002
{
1010
-1266.061543233956
1020
-70.095132588344
1030
0.0
1002
}
1000
TCW_ATTRIBUTE
1002
{
1000
<50>
1002
}
  0
ENDBLK
  5
2B2
100
AcDbEntity
  8
0
100
AcDbBlockEnd
  0
BLOCK
  5
2B5
100
AcDbEntity
  8
0
100
AcDbBlockBegin
  2
*D5
 70
           1
 10
0.0
 20
0.0
 30
0.0
  3
*D5
  1

  0
LINE
  5
2B6
100
AcDbEntity
  8
0
  6
CONTINUOUS
100
AcDbLine
 10
-1241.061543233956
 20
169.18167160867
 30
0.0
 11
-1241.061543233956
 21
312.481458343039
 31
0.0
1001
TCAD
1000
TCW_ATTRIBUTE
1002
{
1000
<50>
1002
}
  0
LINE
  5
2B7
100
AcDbEntity
  8
0
  6
CONTINUOUS
100
AcDbLine
 10
-1291.061543233956
 20
164.18167160867
 30
0.0
 11
-1291.061543233956
 21
312.481458343039
 31
0.0
1001
TCAD
1000
TCW_ATTRIBUTE
1002
{
1000
<50>
1002
}
  0
LWPOLYLINE
  5
2B8
100
AcDbEntity
  8
0
  6
CONTINUOUS
100
AcDbPolyline
 90
        4
 70
           0
 10
-1248.561543233956
 20
307.481458343039
 10
-1248.561543233956
 20
307.481458343039
 10
-1248.561543233956
 20
307.481458343039
 10
-1255.946797140206
 20
307.481458343039
1001
TCAD
1000
TCW_ATTRIBUTE
1002
{
1000
<50>
1002
}
  0
LWPOLYLINE
  5
2B9
100
AcDbEntity
  8
0
  6
CONTINUOUS
100
AcDbPolyline
 90
        4
 70
           0
 10
-1283.561543233956
 20
307.481458343039
 10
-1283.561543233956
 20
307.481458343039
 10
-1283.561543233956
 20
307.481458343039
 10
-1276.176289327706
 20
307.481458343039
1001
TCAD
1000
TCW_ATTRIBUTE
1002
{
1000
<50>
1002
}
  0
LWPOLYLINE
  5
2BB
102
{ACAD_REACTORS
330
2BA
102
}
100
AcDbEntity
  8
0
  6
CONTINUOUS
100
AcDbPolyline
 90
        4
 70
           0
 10
-1241.061543233956
 20
307.481458343039
 10
-1248.561543233956
 20
308.456458343039
 10
-1248.561543233956
 20
306.506458343039
 10
-1241.061543233956
 20
307.481458343039
1001
TCAD
1000
TCW_ATTRIBUTE
1002
{
1000
<50>
1002
}
  0
HATCH
  5
2BA
100
AcDbEntity
  8
0
  6
CONTINUOUS
100
AcDbHatch
 10
0.0
 20
0.0
 30
0.0
210
0.0
220
0.0
230
1.0
  2
SOLID
 70
           1
 71
           1
 91
        1
 92
        3
 72
           0
 73
           1
 93
        3
 10
-1241.0615432339557
 20
307.48145834303881
 10
-1248.5615432339557
 20
308.45645834303883
 10
-1248.5615432339557
 20
306.50645834303879
 97
        1
330
2BB
 75
           0
 76
           0
 98
        0
1001
TCAD
1000
TCW_ATTRIBUTE
1002
{
1000
<50>
1002
}
  0
LWPOLYLINE
  5
2BD
102
{ACAD_REACTORS
330
2BC
102
}
100
AcDbEntity
  8
0
  6
CONTINUOUS
100
AcDbPolyline
 90
        4
 70
           0
 10
-1291.061543233956
 20
307.481458343039
 10
-1283.561543233956
 20
306.506458343039
 10
-1283.561543233956
 20
308.456458343039
 10
-1291.061543233956
 20
307.481458343039
1001
TCAD
1000
TCW_ATTRIBUTE
1002
{
1000
<50>
1002
}
  0
HATCH
  5
2BC
100
AcDbEntity
  8
0
  6
CONTINUOUS
100
AcDbHatch
 10
0.0
 20
0.0
 30
0.0
210
0.0
220
0.0
230
1.0
  2
SOLID
 70
           1
 71
           1
 91
        1
 92
        3
 72
           0
 73
           1
 93
        3
 10
-1291.0615432339557
 20
307.48145834303881
 10
-1283.5615432339557
 20
306.50645834303879
 10
-1283.5615432339557
 20
308.45645834303883
 97
        1
330
2BD
 75
           0
 76
           0
 98
        0
1001
TCAD
1000
TCW_ATTRIBUTE
1002
{
1000
<50>
1002
}
  0
MTEXT
  5
2BE
100
AcDbEntity
  8
0
  6
CONTINUOUS
100
AcDbMText
 10
-1266.061543233956
 20
307.481458343039
 30
0.0
 40
7.5
 41
0.0
 71
           5
 72
           1
  1
\A1;50
1001
TCAD
1000
TCW_REFPOINT
1002
{
1010
-1266.061543233956
1020
307.481458343039
1030
0.0
1002
}
1000
TCW_ATTRIBUTE
1002
{
1000
<50>
1002
}
  0
ENDBLK
  5
2BF
100
AcDbEntity
  8
0
100
AcDbBlockEnd
  0
BLOCK
  5
2C2
100
AcDbEntity
  8
0
100
AcDbBlockBegin
  2
*D6
 70
           1
 10
0.0
 20
0.0
 30
0.0
  3
*D6
  1

  0
LINE
  5
2C3
100
AcDbEntity
  8
0
  6
CONTINUOUS
100
AcDbLine
 10
-1241.061543233956
 20
183.98167160867
 30
0.0
 11
-1241.061543233956
 21
312.481458343039
 31
0.0
1001
TCAD
1000
TCW_ATTRIBUTE
1002
{
1000
<82,5>
1002
}
  0
LINE
  5
2C4
100
AcDbEntity
  8
0
  6
CONTINUOUS
100
AcDbLine
 10
-1158.561543233956
 20
164.18167160867
 30
0.0
 11
-1158.561543233956
 21
312.481458343039
 31
0.0
1001
TCAD
1000
TCW_ATTRIBUTE
1002
{
1000
<82,5>
1002
}
  0
LWPOLYLINE
  5
2C5
100
AcDbEntity
  8
0
  6
CONTINUOUS
100
AcDbPolyline
 90
        4
 70
           0
 10
-1233.561543233956
 20
307.481458343039
 10
-1233.561543233956
 20
307.481458343039
 10
-1233.561543233956
 20
307.481458343039
 10
-1213.515156515206
 20
307.481458343039
1001
TCAD
1000
TCW_ATTRIBUTE
1002
{
1000
<82,5>
1002
}
  0
LWPOLYLINE
  5
2C6
100
AcDbEntity
  8
0
  6
CONTINUOUS
100
AcDbPolyline
 90
        4
 70
           0
 10
-1166.061543233956
 20
307.481458343039
 10
-1166.061543233956
 20
307.481458343039
 10
-1166.061543233956
 20
307.481458343039
 10
-1186.107929952706
 20
307.481458343039
1001
TCAD
1000
TCW_ATTRIBUTE
1002
{
1000
<82,5>
1002
}
  0
LWPOLYLINE
  5
2C8
102
{ACAD_REACTORS
330
2C7
102
}
100
AcDbEntity
  8
0
  6
CONTINUOUS
100
AcDbPolyline
 90
        4
 70
           0
 10
-1241.061543233956
 20
307.481458343039
 10
-1233.561543233956
 20
306.506458343039
 10
-1233.561543233956
 20
308.456458343039
 10
-1241.061543233956
 20
307.481458343039
1001
TCAD
1000
TCW_ATTRIBUTE
1002
{
1000
<82,5>
1002
}
  0
HATCH
  5
2C7
100
AcDbEntity
  8
0
  6
CONTINUOUS
100
AcDbHatch
 10
0.0
 20
0.0
 30
0.0
210
0.0
220
0.0
230
1.0
  2
SOLID
 70
           1
 71
           1
 91
        1
 92
        3
 72
           0
 73
           1
 93
        3
 10
-1241.0615432339559
 20
307.48145834303881
 10
-1233.5615432339559
 20
306.50645834303879
 10
-1233.5615432339559
 20
308.45645834303883
 97
        1
330
2C8
 75
           0
 76
           0
 98
        0
1001
TCAD
1000
TCW_ATTRIBUTE
1002
{
1000
<82,5>
1002
}
  0
LWPOLYLINE
  5
2CA
102
{ACAD_REACTORS
330
2C9
102
}
100
AcDbEntity
  8
0
  6
CONTINUOUS
100
AcDbPolyline
 90
        4
 70
           0
 10
-1158.561543233956
 20
307.481458343039
 10
-1166.061543233956
 20
308.456458343039
 10
-1166.061543233956
 20
306.506458343039
 10
-1158.561543233956
 20
307.481458343039
1001
TCAD
1000
TCW_ATTRIBUTE
1002
{
1000
<82,5>
1002
}
  0
HATCH
  5
2C9
100
AcDbEntity
  8
0
  6
CONTINUOUS
100
AcDbHatch
 10
0.0
 20
0.0
 30
0.0
210
0.0
220
0.0
230
1.0
  2
SOLID
 70
           1
 71
           1
 91
        1
 92
        3
 72
           0
 73
           1
 93
        3
 10
-1158.5615432339557
 20
307.48145834303881
 10
-1166.0615432339557
 20
308.45645834303883
 10
-1166.0615432339557
 20
306.50645834303879
 97
        1
330
2CA
 75
           0
 76
           0
 98
        0
1001
TCAD
1000
TCW_ATTRIBUTE
1002
{
1000
<82,5>
1002
}
  0
MTEXT
  5
2CB
100
AcDbEntity
  8
0
  6
CONTINUOUS
100
AcDbMText
 10
-1199.811543233956
 20
307.481458343039
 30
0.0
 40
7.5
 41
0.0
 71
           5
 72
           1
  1
\A1;82,5
1001
TCAD
1000
TCW_REFPOINT
1002
{
1010
-1199.811543233956
1020
307.481458343039
1030
0.0
1002
}
1000
TCW_ATTRIBUTE
1002
{
1000
<82,5>
1002
}
  0
ENDBLK
  5
2CC
100
AcDbEntity
  8
0
100
AcDbBlockEnd
  0
BLOCK
  5
2CF
100
AcDbEntity
  8
0
100
AcDbBlockBegin
  2
*D7
 70
           1
 10
0.0
 20
0.0
 30
0.0
  3
*D7
  1

  0
LINE
  5
2D0
100
AcDbEntity
  8
0
  6
CONTINUOUS
100
AcDbLine
 10
-1119.061543233956
 20
47.68167160867
 30
0.0
 11
-1036.499473084112
 21
47.68167160867
 31
0.0
1001
TCAD
1000
TCW_ATTRIBUTE
1002
{
1000
D
1002
}
  0
LINE
  5
2D1
100
AcDbEntity
  8
0
  6
CONTINUOUS
100
AcDbLine
 10
-1046.561543233956
 20
185.68167160867
 30
0.0
 11
-1036.499473084112
 21
185.68167160867
 31
0.0
1001
TCAD
1000
TCW_ATTRIBUTE
1002
{
1000
D
1002
}
  0
LWPOLYLINE
  5
2D2
100
AcDbEntity
  8
0
  6
CONTINUOUS
100
AcDbPolyline
 90
        4
 70
           0
 10
-1041.499473084112
 20
55.18167160867
 10
-1041.499473084112
 20
55.18167160867
 10
-1041.499473084112
 20
55.18167160867
 10
-1041.499473084112
 20
108.477325905545
1001
TCAD
1000
TCW_ATTRIBUTE
1002
{
1000
D
1002
}
  0
LWPOLYLINE
  5
2D3
100
AcDbEntity
  8
0
  6
CONTINUOUS
100
AcDbPolyline
 90
        4
 70
           0
 10
-1041.499473084112
 20
178.18167160867
 10
-1041.499473084112
 20
178.18167160867
 10
-1041.499473084112
 20
178.18167160867
 10
-1041.499473084112
 20
124.886017311795
1001
TCAD
1000
TCW_ATTRIBUTE
1002
{
1000
D
1002
}
  0
LWPOLYLINE
  5
2D5
102
{ACAD_REACTORS
330
2D4
102
}
100
AcDbEntity
  8
0
  6
CONTINUOUS
100
AcDbPolyline
 90
        4
 70
           0
 10
-1041.499473084112
 20
47.68167160867
 10
-1040.524473084113
 20
55.18167160867
 10
-1042.474473084112
 20
55.18167160867
 10
-1041.499473084112
 20
47.68167160867
1001
TCAD
1000
TCW_ATTRIBUTE
1002
{
1000
D
1002
}
  0
HATCH
  5
2D4
100
AcDbEntity
  8
0
  6
CONTINUOUS
100
AcDbHatch
 10
0.0
 20
0.0
 30
0.0
210
0.0
220
0.0
230
1.0
  2
SOLID
 70
           1
 71
           1
 91
        1
 92
        3
 72
           0
 73
           1
 93
        3
 10
-1041.4994730841124
 20
47.681671608670001
 10
-1040.5244730841125
 20
55.181671608670001
 10
-1042.4744730841123
 20
55.181671608670001
 97
        1
330
2D5
 75
           0
 76
           0
 98
        0
1001
TCAD
1000
TCW_ATTRIBUTE
1002
{
1000
D
1002
}
  0
LWPOLYLINE
  5
2D7
102
{ACAD_REACTORS
330
2D6
102
}
100
AcDbEntity
  8
0
  6
CONTINUOUS
100
AcDbPolyline
 90
        4
 70
           0
 10
-1041.499473084112
 20
185.68167160867
 10
-1042.474473084112
 20
178.18167160867
 10
-1040.524473084113
 20
178.18167160867
 10
-1041.499473084112
 20
185.68167160867
1001
TCAD
1000
TCW_ATTRIBUTE
1002
{
1000
D
1002
}
  0
HATCH
  5
2D6
100
AcDbEntity
  8
0
  6
CONTINUOUS
100
AcDbHatch
 10
0.0
 20
0.0
 30
0.0
210
0.0
220
0.0
230
1.0
  2
SOLID
 70
           1
 71
           1
 91
        1
 92
        3
 72
           0
 73
           1
 93
        3
 10
-1041.4994730841124
 20
185.68167160866997
 10
-1042.4744730841123
 20
178.18167160866997
 10
-1040.5244730841125
 20
178.18167160866997
 97
        1
330
2D7
 75
           0
 76
           0
 98
        0
1001
TCAD
1000
TCW_ATTRIBUTE
1002
{
1000
D
1002
}
  0
MTEXT
  5
2D8
100
AcDbEntity
  8
0
  6
CONTINUOUS
100
AcDbMText
 10
-1041.499473084112
 20
116.68167160867
 30
0.0
 40
7.5
 41
0.0
 71
           5
 72
           1
  1
\A1;D
 11
0.0
 21
1.0
 31
0.0
1001
TCAD
1000
TCW_REFPOINT
1002
{
1010
-1041.499473084112
1020
116.68167160867
1030
0.0
1002
}
1000
TCW_ATTRIBUTE
1002
{
1000
D
1002
}
  0
ENDBLK
  5
2D9
100
AcDbEntity
  8
0
100
AcDbBlockEnd
  0
BLOCK
  5
2DC
100
AcDbEntity
  8
0
100
AcDbBlockBegin
  2
*D8
 70
           1
 10
0.0
 20
0.0
 30
0.0
  3
*D8
  1

  0
LINE
  5
2DD
100
AcDbEntity
  8
0
  6
CONTINUOUS
100
AcDbLine
 10
-1158.561543233956
 20
164.18167160867
 30
0.0
 11
-1158.561543233956
 21
312.481458343039
 31
0.0
1001
TCAD
1000
TCW_ATTRIBUTE
1002
{
1000
L
1002
}
  0
LINE
  5
2DE
100
AcDbEntity
  8
0
  6
CONTINUOUS
100
AcDbLine
 10
-938.561543233956
 20
119.18167160867
 30
0.0
 11
-938.561543233956
 21
312.481458343039
 31
0.0
1001
TCAD
1000
TCW_ATTRIBUTE
1002
{
1000
L
1002
}
  0
LWPOLYLINE
  5
2DF
100
AcDbEntity
  8
0
  6
CONTINUOUS
100
AcDbPolyline
 90
        4
 70
           0
 10
-1151.061543233956
 20
307.481458343039
 10
-1151.061543233956
 20
307.481458343039
 10
-1151.061543233956
 20
307.481458343039
 10
-1056.039570577706
 20
307.481458343039
1001
TCAD
1000
TCW_ATTRIBUTE
1002
{
1000
L
1002
}
  0
LWPOLYLINE
  5
2E0
100
AcDbEntity
  8
0
  6
CONTINUOUS
100
AcDbPolyline
 90
        4
 70
           0
 10
-946.061543233956
 20
307.481458343039
 10
-946.061543233956
 20
307.481458343039
 10
-946.061543233956
 20
307.481458343039
 10
-1041.083515890206
 20
307.481458343039
1001
TCAD
1000
TCW_ATTRIBUTE
1002
{
1000
L
1002
}
  0
LWPOLYLINE
  5
2E2
102
{ACAD_REACTORS
330
2E1
102
}
100
AcDbEntity
  8
0
  6
CONTINUOUS
100
AcDbPolyline
 90
        4
 70
           0
 10
-1158.561543233956
 20
307.481458343039
 10
-1151.061543233956
 20
306.506458343039
 10
-1151.061543233956
 20
308.456458343039
 10
-1158.561543233956
 20
307.481458343039
1001
TCAD
1000
TCW_ATTRIBUTE
1002
{
1000
L
1002
}
  0
HATCH
  5
2E1
100
AcDbEntity
  8
0
  6
CONTINUOUS
100
AcDbHatch
 10
0.0
 20
0.0
 30
0.0
210
0.0
220
0.0
230
1.0
  2
SOLID
 70
           1
 71
           1
 91
        1
 92
        3
 72
           0
 73
           1
 93
        3
 10
-1158.5615432339557
 20
307.48145834303875
 10
-1151.0615432339557
 20
306.50645834303873
 10
-1151.0615432339557
 20
308.45645834303878
 97
        1
330
2E2
 75
           0
 76
           0
 98
        0
1001
TCAD
1000
TCW_ATTRIBUTE
1002
{
1000
L
1002
}
  0
LWPOLYLINE
  5
2E4
102
{ACAD_REACTORS
330
2E3
102
}
100
AcDbEntity
  8
0
  6
CONTINUOUS
100
AcDbPolyline
 90
        4
 70
           0
 10
-938.561543233956
 20
307.481458343039
 10
-946.061543233956
 20
308.456458343039
 10
-946.061543233956
 20
306.506458343039
 10
-938.561543233956
 20
307.481458343039
1001
TCAD
1000
TCW_ATTRIBUTE
1002
{
1000
L
1002
}
  0
HATCH
  5
2E3
100
AcDbEntity
  8
0
  6
CONTINUOUS
100
AcDbHatch
 10
0.0
 20
0.0
 30
0.0
210
0.0
220
0.0
230
1.0
  2
SOLID
 70
           1
 71
           1
 91
        1
 92
        3
 72
           0
 73
           1
 93
        3
 10
-938.56154323395572
 20
307.48145834303875
 10
-946.06154323395572
 20
308.45645834303878
 10
-946.06154323395572
 20
306.50645834303873
 97
        1
330
2E4
 75
           0
 76
           0
 98
        0
1001
TCAD
1000
TCW_ATTRIBUTE
1002
{
1000
L
1002
}
  0
MTEXT
  5
2E5
100
AcDbEntity
  8
0
  6
CONTINUOUS
100
AcDbMText
 10
-1048.561543233956
 20
307.481458343039
 30
0.0
 40
7.5
 41
0.0
 71
           5
 72
           1
  1
\A1;L
1001
TCAD
1000
TCW_REFPOINT
1002
{
1010
-1048.561543233956
1020
307.481458343039
1030
0.0
1002
}
1000
TCW_ATTRIBUTE
1002
{
1000
L
1002
}
  0
ENDBLK
  5
2E6
100
AcDbEntity
  8
0
100
AcDbBlockEnd
  0
BLOCK
  5
2E9
100
AcDbEntity
  8
0
100
AcDbBlockBegin
  2
*D9
 70
           1
 10
0.0
 20
0.0
 30
0.0
  3
*D9
  1

  0
LINE
  5
2EA
100
AcDbEntity
  8
0
  6
CONTINUOUS
100
AcDbLine
 10
-1292.561543233956
 20
46.38167160867
 30
0.0
 11
-1319.886232420411
 21
46.38167160867
 31
0.0
1001
TCAD
1000
TCW_ATTRIBUTE
1002
{
1000
<70,5>
1002
}
  0
LINE
  5
2EB
100
AcDbEntity
  8
0
  6
CONTINUOUS
100
AcDbLine
 10
-1291.561543233956
 20
116.68167160867
 30
0.0
 11
-1319.886232420411
 21
116.68167160867
 31
0.0
1001
TCAD
1000
TCW_ATTRIBUTE
1002
{
1000
<70,5>
1002
}
  0
LWPOLYLINE
  5
2EC
100
AcDbEntity
  8
0
  6
CONTINUOUS
100
AcDbPolyline
 90
        4
 70
           0
 10
-1314.886232420411
 20
53.88167160867
 10
-1314.886232420411
 20
53.88167160867
 10
-1314.886232420411
 20
53.88167160867
 10
-1314.886232420411
 20
67.82805832742
1001
TCAD
1000
TCW_ATTRIBUTE
1002
{
1000
<70,5>
1002
}
  0
LWPOLYLINE
  5
2ED
100
AcDbEntity
  8
0
  6
CONTINUOUS
100
AcDbPolyline
 90
        4
 70
           0
 10
-1314.886232420411
 20
109.18167160867
 10
-1314.886232420411
 20
109.18167160867
 10
-1314.886232420411
 20
109.18167160867
 10
-1314.886232420411
 20
95.23528488992
1001
TCAD
1000
TCW_ATTRIBUTE
1002
{
1000
<70,5>
1002
}
  0
LWPOLYLINE
  5
2EF
102
{ACAD_REACTORS
330
2EE
102
}
100
AcDbEntity
  8
0
  6
CONTINUOUS
100
AcDbPolyline
 90
        4
 70
           0
 10
-1314.886232420411
 20
46.38167160867
 10
-1313.911232420411
 20
53.88167160867
 10
-1315.861232420411
 20
53.88167160867
 10
-1314.886232420411
 20
46.38167160867
1001
TCAD
1000
TCW_ATTRIBUTE
1002
{
1000
<70,5>
1002
}
  0
HATCH
  5
2EE
100
AcDbEntity
  8
0
  6
CONTINUOUS
100
AcDbHatch
 10
0.0
 20
0.0
 30
0.0
210
0.0
220
0.0
230
1.0
  2
SOLID
 70
           1
 71
           1
 91
        1
 92
        3
 72
           0
 73
           1
 93
        3
 10
-1314.8862324204108
 20
46.381671608669834
 10
-1313.9112324204109
 20
53.881671608669834
 10
-1315.8612324204107
 20
53.881671608669834
 97
        1
330
2EF
 75
           0
 76
           0
 98
        0
1001
TCAD
1000
TCW_ATTRIBUTE
1002
{
1000
<70,5>
1002
}
  0
LWPOLYLINE
  5
2F1
102
{ACAD_REACTORS
330
2F0
102
}
100
AcDbEntity
  8
0
  6
CONTINUOUS
100
AcDbPolyline
 90
        4
 70
           0
 10
-1314.886232420411
 20
116.68167160867
 10
-1315.861232420411
 20
109.18167160867
 10
-1313.911232420411
 20
109.18167160867
 10
-1314.886232420411
 20
116.68167160867
1001
TCAD
1000
TCW_ATTRIBUTE
1002
{
1000
<70,5>
1002
}
  0
HATCH
  5
2F0
100
AcDbEntity
  8
0
  6
CONTINUOUS
100
AcDbHatch
 10
0.0
 20
0.0
 30
0.0
210
0.0
220
0.0
230
1.0
  2
SOLID
 70
           1
 71
           1
 91
        1
 92
        3
 72
           0
 73
           1
 93
        3
 10
-1314.8862324204108
 20
116.68167160866996
 10
-1315.8612324204107
 20
109.18167160866996
 10
-1313.9112324204109
 20
109.18167160866996
 97
        1
330
2F1
 75
           0
 76
           0
 98
        0
1001
TCAD
1000
TCW_ATTRIBUTE
1002
{
1000
<70,5>
1002
}
  0
MTEXT
  5
2F2
100
AcDbEntity
  8
0
  6
CONTINUOUS
100
AcDbMText
 10
-1314.886232420411
 20
81.53167160867
 30
0.0
 40
7.5
 41
0.0
 71
           5
 72
           1
  1
\A1;70,5
 11
0.0
 21
1.0
 31
0.0
1001
TCAD
1000
TCW_REFPOINT
1002
{
1010
-1314.886232420411
1020
81.53167160867
1030
0.0
1002
}
1000
TCW_ATTRIBUTE
1002
{
1000
<70,5>
1002
}
  0
ENDBLK
  5
2F3
100
AcDbEntity
  8
0
100
AcDbBlockEnd
  0
BLOCK
  5
2F6
100
AcDbEntity
  8
0
100
AcDbBlockBegin
  2
*D10
 70
           1
 10
0.0
 20
0.0
 30
0.0
  3
*D10
  1

  0
LINE
  5
2F7
100
AcDbEntity
  8
0
  6
CONTINUOUS
100
AcDbLine
 10
-768.390500119793
 20
119.18167160867
 30
0.0
 11
-768.390500119793
 21
289.864601615556
 31
0.0
1001
TCAD
1000
TCW_ATTRIBUTE
1002
{
1000
<29>
1002
}
  0
LINE
  5
2F8
100
AcDbEntity
  8
0
  6
CONTINUOUS
100
AcDbLine
 10
-797.390500119793
 20
119.18167160867
 30
0.0
 11
-797.390500119793
 21
289.864601615556
 31
0.0
1001
TCAD
1000
TCW_ATTRIBUTE
1002
{
1000
<29>
1002
}
  0
LWPOLYLINE
  5
2F9
100
AcDbEntity
  8
0
  6
CONTINUOUS
100
AcDbPolyline
 90
        2
 70
           0
 10
-753.390500119793
 20
284.864601615556
 10
-760.890500119793
 20
284.864601615556
1001
TCAD
1000
TCW_ATTRIBUTE
1002
{
1000
<29>
1002
}
  0
LWPOLYLINE
  5
2FA
100
AcDbEntity
  8
0
  6
CONTINUOUS
100
AcDbPolyline
 90
        2
 70
           0
 10
-768.390500119793
 20
284.864601615556
 40
0.0
 41
0.0
 10
-777.775754026043
 20
284.864601615556
 40
0.0
 41
0.0
1001
TCAD
1000
TCW_ATTRIBUTE
1002
{
1000
<29>
1002
}
  0
LWPOLYLINE
  5
2FB
100
AcDbEntity
  8
0
  6
CONTINUOUS
100
AcDbPolyline
 90
        2
 70
           0
 10
-812.390500119793
 20
284.864601615556
 10
-804.890500119793
 20
284.864601615556
1001
TCAD
1000
TCW_ATTRIBUTE
1002
{
1000
<29>
1002
}
  0
LWPOLYLINE
  5
2FC
100
AcDbEntity
  8
0
  6
CONTINUOUS
100
AcDbPolyline
 90
        2
 70
           0
 10
-797.390500119793
 20
284.864601615556
 40
0.0
 41
0.0
 10
-788.005246213543
 20
284.864601615556
 40
0.0
 41
0.0
1001
TCAD
1000
TCW_ATTRIBUTE
1002
{
1000
<29>
1002
}
  0
LWPOLYLINE
  5
2FE
102
{ACAD_REACTORS
330
2FD
102
}
100
AcDbEntity
  8
0
  6
CONTINUOUS
100
AcDbPolyline
 90
        4
 70
           0
 10
-797.390500119793
 20
284.864601615556
 10
-804.890500119793
 20
285.839601615556
 10
-804.890500119793
 20
283.889601615556
 10
-797.390500119793
 20
284.864601615556
1001
TCAD
1000
TCW_ATTRIBUTE
1002
{
1000
<29>
1002
}
  0
HATCH
  5
2FD
100
AcDbEntity
  8
0
  6
CONTINUOUS
100
AcDbHatch
 10
0.0
 20
0.0
 30
0.0
210
0.0
220
0.0
230
1.0
  2
SOLID
 70
           1
 71
           1
 91
        1
 92
        3
 72
           0
 73
           1
 93
        3
 10
-797.39050011979305
 20
284.86460161555573
 10
-804.89050011979305
 20
285.83960161555575
 10
-804.89050011979305
 20
283.8896016155557
 97
        1
330
2FE
 75
           0
 76
           0
 98
        0
1001
TCAD
1000
TCW_ATTRIBUTE
1002
{
1000
<29>
1002
}
  0
LWPOLYLINE
  5
300
102
{ACAD_REACTORS
330
2FF
102
}
100
AcDbEntity
  8
0
  6
CONTINUOUS
100
AcDbPolyline
 90
        4
 70
           0
 10
-768.390500119793
 20
284.864601615556
 10
-760.890500119793
 20
283.889601615556
 10
-760.890500119793
 20
285.839601615556
 10
-768.390500119793
 20
284.864601615556
1001
TCAD
1000
TCW_ATTRIBUTE
1002
{
1000
<29>
1002
}
  0
HATCH
  5
2FF
100
AcDbEntity
  8
0
  6
CONTINUOUS
100
AcDbHatch
 10
0.0
 20
0.0
 30
0.0
210
0.0
220
0.0
230
1.0
  2
SOLID
 70
           1
 71
           1
 91
        1
 92
        3
 72
           0
 73
           1
 93
        3
 10
-768.39050011979316
 20
284.86460161555556
 10
-760.89050011979316
 20
283.88960161555553
 10
-760.89050011979316
 20
285.83960161555558
 97
        1
330
300
 75
           0
 76
           0
 98
        0
1001
TCAD
1000
TCW_ATTRIBUTE
1002
{
1000
<29>
1002
}
  0
MTEXT
  5
301
100
AcDbEntity
  8
0
  6
CONTINUOUS
100
AcDbMText
 10
-782.890500119793
 20
284.864601615556
 30
0.0
 40
7.5
 41
0.0
 71
           5
 72
           1
  1
\A1;29
1001
TCAD
1000
TCW_REFPOINT
1002
{
1010
-782.890500119793
1020
284.864601615556
1030
0.0
1002
}
1000
TCW_ATTRIBUTE
1002
{
1000
<29>
1002
}
  0
ENDBLK
  5
302
100
AcDbEntity
  8
0
100
AcDbBlockEnd
  0
BLOCK
  5
305
100
AcDbEntity
  8
0
100
AcDbBlockBegin
  2
*D11
 70
           1
 10
0.0
 20
0.0
 30
0.0
  3
*D11
  1

  0
LINE
  5
306
100
AcDbEntity
  8
0
  6
CONTINUOUS
100
AcDbLine
 10
-768.390500119793
 20
119.18167160867
 30
0.0
 11
-768.390500119793
 21
312.481458343039
 31
0.0
1001
TCAD
1000
TCW_ATTRIBUTE
1002
{
1000
<67>
1002
}
  0
LINE
  5
307
100
AcDbEntity
  8
0
  6
CONTINUOUS
100
AcDbLine
 10
-835.390500119793
 20
119.18167160867
 30
0.0
 11
-835.390500119793
 21
312.481458343039
 31
0.0
1001
TCAD
1000
TCW_ATTRIBUTE
1002
{
1000
<67>
1002
}
  0
LWPOLYLINE
  5
308
100
AcDbEntity
  8
0
  6
CONTINUOUS
100
AcDbPolyline
 90
        4
 70
           0
 10
-775.890500119793
 20
307.481458343039
 10
-775.890500119793
 20
307.481458343039
 10
-775.890500119793
 20
307.481458343039
 10
-791.775754026043
 20
307.481458343039
1001
TCAD
1000
TCW_ATTRIBUTE
1002
{
1000
<67>
1002
}
  0
LWPOLYLINE
  5
309
100
AcDbEntity
  8
0
  6
CONTINUOUS
100
AcDbPolyline
 90
        4
 70
           0
 10
-827.890500119793
 20
307.481458343039
 10
-827.890500119793
 20
307.481458343039
 10
-827.890500119793
 20
307.481458343039
 10
-812.005246213543
 20
307.481458343039
1001
TCAD
1000
TCW_ATTRIBUTE
1002
{
1000
<67>
1002
}
  0
LWPOLYLINE
  5
30B
102
{ACAD_REACTORS
330
30A
102
}
100
AcDbEntity
  8
0
  6
CONTINUOUS
100
AcDbPolyline
 90
        4
 70
           0
 10
-768.390500119793
 20
307.481458343039
 10
-775.890500119793
 20
308.456458343039
 10
-775.890500119793
 20
306.506458343039
 10
-768.390500119793
 20
307.481458343039
1001
TCAD
1000
TCW_ATTRIBUTE
1002
{
1000
<67>
1002
}
  0
HATCH
  5
30A
100
AcDbEntity
  8
0
  6
CONTINUOUS
100
AcDbHatch
 10
0.0
 20
0.0
 30
0.0
210
0.0
220
0.0
230
1.0
  2
SOLID
 70
           1
 71
           1
 91
        1
 92
        3
 72
           0
 73
           1
 93
        3
 10
-768.39050011979316
 20
307.48145834303853
 10
-775.89050011979316
 20
308.45645834303855
 10
-775.89050011979316
 20
306.5064583430385
 97
        1
330
30B
 75
           0
 76
           0
 98
        0
1001
TCAD
1000
TCW_ATTRIBUTE
1002
{
1000
<67>
1002
}
  0
LWPOLYLINE
  5
30D
102
{ACAD_REACTORS
330
30C
102
}
100
AcDbEntity
  8
0
  6
CONTINUOUS
100
AcDbPolyline
 90
        4
 70
           0
 10
-835.390500119793
 20
307.481458343039
 10
-827.890500119793
 20
306.506458343039
 10
-827.890500119793
 20
308.456458343039
 10
-835.390500119793
 20
307.481458343039
1001
TCAD
1000
TCW_ATTRIBUTE
1002
{
1000
<67>
1002
}
  0
HATCH
  5
30C
100
AcDbEntity
  8
0
  6
CONTINUOUS
100
AcDbHatch
 10
0.0
 20
0.0
 30
0.0
210
0.0
220
0.0
230
1.0
  2
SOLID
 70
           1
 71
           1
 91
        1
 92
        3
 72
           0
 73
           1
 93
        3
 10
-835.39050011979305
 20
307.48145834303864
 10
-827.89050011979305
 20
306.50645834303862
 10
-827.89050011979305
 20
308.45645834303866
 97
        1
330
30D
 75
           0
 76
           0
 98
        0
1001
TCAD
1000
TCW_ATTRIBUTE
1002
{
1000
<67>
1002
}
  0
MTEXT
  5
30E
100
AcDbEntity
  8
0
  6
CONTINUOUS
100
AcDbMText
 10
-801.890500119793
 20
307.481458343039
 30
0.0
 40
7.5
 41
0.0
 71
           5
 72
           1
  1
\A1;67
1001
TCAD
1000
TCW_REFPOINT
1002
{
1010
-801.890500119793
1020
307.481458343039
1030
0.0
1002
}
1000
TCW_ATTRIBUTE
1002
{
1000
<67>
1002
}
  0
ENDBLK
  5
30F
100
AcDbEntity
  8
0
100
AcDbBlockEnd
  0
BLOCK
  5
312
100
AcDbEntity
  8
0
100
AcDbBlockBegin
  2
*D12
 70
           1
 10
0.0
 20
0.0
 30
0.0
  3
*D12
  1

  0
LINE
  5
313
100
AcDbEntity
  8
0
  6
CONTINUOUS
100
AcDbLine
 10
-835.390500119793
 20
119.18167160867
 30
0.0
 11
-835.390500119793
 21
332.676359066296
 31
0.0
1001
TCAD
1000
TCW_ATTRIBUTE
1002
{
1000
<117>
1002
}
  0
LINE
  5
314
100
AcDbEntity
  8
0
  6
CONTINUOUS
100
AcDbLine
 10
-718.390500119793
 20
156.68167160867
 30
0.0
 11
-718.390500119793
 21
332.676359066296
 31
0.0
1001
TCAD
1000
TCW_ATTRIBUTE
1002
{
1000
<117>
1002
}
  0
LWPOLYLINE
  5
315
100
AcDbEntity
  8
0
  6
CONTINUOUS
100
AcDbPolyline
 90
        4
 70
           0
 10
-827.890500119793
 20
327.676359066296
 10
-827.890500119793
 20
327.676359066296
 10
-827.890500119793
 20
327.676359066296
 10
-789.559567502606
 20
327.676359066296
1001
TCAD
1000
TCW_ATTRIBUTE
1002
{
1000
<117>
1002
}
  0
LWPOLYLINE
  5
316
100
AcDbEntity
  8
0
  6
CONTINUOUS
100
AcDbPolyline
 90
        4
 70
           0
 10
-725.890500119793
 20
327.676359066296
 10
-725.890500119793
 20
327.676359066296
 10
-725.890500119793
 20
327.676359066296
 10
-764.221432736981
 20
327.676359066296
1001
TCAD
1000
TCW_ATTRIBUTE
1002
{
1000
<117>
1002
}
  0
LWPOLYLINE
  5
318
102
{ACAD_REACTORS
330
317
102
}
100
AcDbEntity
  8
0
  6
CONTINUOUS
100
AcDbPolyline
 90
        4
 70
           0
 10
-835.390500119793
 20
327.676359066296
 10
-827.890500119793
 20
326.701359066296
 10
-827.890500119793
 20
328.651359066296
 10
-835.390500119793
 20
327.676359066296
1001
TCAD
1000
TCW_ATTRIBUTE
1002
{
1000
<117>
1002
}
  0
HATCH
  5
317
100
AcDbEntity
  8
0
  6
CONTINUOUS
100
AcDbHatch
 10
0.0
 20
0.0
 30
0.0
210
0.0
220
0.0
230
1.0
  2
SOLID
 70
           1
 71
           1
 91
        1
 92
        3
 72
           0
 73
           1
 93
        3
 10
-835.39050011979305
 20
327.67635906629647
 10
-827.89050011979305
 20
326.70135906629645
 10
-827.89050011979305
 20
328.65135906629649
 97
        1
330
318
 75
           0
 76
           0
 98
        0
1001
TCAD
1000
TCW_ATTRIBUTE
1002
{
1000
<117>
1002
}
  0
LWPOLYLINE
  5
31A
102
{ACAD_REACTORS
330
319
102
}
100
AcDbEntity
  8
0
  6
CONTINUOUS
100
AcDbPolyline
 90
        4
 70
           0
 10
-718.390500119793
 20
327.676359066296
 10
-725.890500119793
 20
328.651359066296
 10
-725.890500119793
 20
326.701359066296
 10
-718.390500119793
 20
327.676359066296
1001
TCAD
1000
TCW_ATTRIBUTE
1002
{
1000
<117>
1002
}
  0
HATCH
  5
319
100
AcDbEntity
  8
0
  6
CONTINUOUS
100
AcDbHatch
 10
0.0
 20
0.0
 30
0.0
210
0.0
220
0.0
230
1.0
  2
SOLID
 70
           1
 71
           1
 91
        1
 92
        3
 72
           0
 73
           1
 93
        3
 10
-718.39050011979305
 20
327.67635906629647
 10
-725.89050011979305
 20
328.65135906629649
 10
-725.89050011979305
 20
326.70135906629645
 97
        1
330
31A
 75
           0
 76
           0
 98
        0
1001
TCAD
1000
TCW_ATTRIBUTE
1002
{
1000
<117>
1002
}
  0
MTEXT
  5
31B
100
AcDbEntity
  8
0
  6
CONTINUOUS
100
AcDbMText
 10
-776.890500119793
 20
327.676359066296
 30
0.0
 40
7.5
 41
0.0
 71
           5
 72
           1
  1
\A1;117
1001
TCAD
1000
TCW_REFPOINT
1002
{
1010
-776.890500119793
1020
327.676359066296
1030
0.0
1002
}
1000
TCW_ATTRIBUTE
1002
{
1000
<117>
1002
}
  0
ENDBLK
  5
31C
100
AcDbEntity
  8
0
100
AcDbBlockEnd
  0
BLOCK
  5
31F
100
AcDbEntity
  8
0
100
AcDbBlockBegin
  2
*D13
 70
           1
 10
0.0
 20
0.0
 30
0.0
  3
*D13
  1

  0
LINE
  5
320
100
AcDbEntity
  8
0
  6
CONTINUOUS
100
AcDbLine
 10
-768.390500119793
 20
251.98167160867
 30
0.0
 11
-768.390500119793
 21
270.92981625907
 31
0.0
1001
TCAD
1000
TCW_ATTRIBUTE
1002
{
1000
<98>
1002
}
  0
LINE
  5
321
100
AcDbEntity
  8
0
  6
CONTINUOUS
100
AcDbLine
 10
-866.390500119793
 20
235.48167160867
 30
0.0
 11
-866.390500119793
 21
270.92981625907
 31
0.0
1001
TCAD
1000
TCW_ATTRIBUTE
1002
{
1000
<98>
1002
}
  0
LWPOLYLINE
  5
322
100
AcDbEntity
  8
0
  6
CONTINUOUS
100
AcDbPolyline
 90
        4
 70
           0
 10
-775.890500119793
 20
265.92981625907
 10
-775.890500119793
 20
265.92981625907
 10
-775.890500119793
 20
265.92981625907
 10
-807.275754026043
 20
265.92981625907
1001
TCAD
1000
TCW_ATTRIBUTE
1002
{
1000
<98>
1002
}
  0
LWPOLYLINE
  5
323
100
AcDbEntity
  8
0
  6
CONTINUOUS
100
AcDbPolyline
 90
        4
 70
           0
 10
-858.890500119793
 20
265.92981625907
 10
-858.890500119793
 20
265.92981625907
 10
-858.890500119793
 20
265.92981625907
 10
-827.505246213543
 20
265.92981625907
1001
TCAD
1000
TCW_ATTRIBUTE
1002
{
1000
<98>
1002
}
  0
LWPOLYLINE
  5
325
102
{ACAD_REACTORS
330
324
102
}
100
AcDbEntity
  8
0
  6
CONTINUOUS
100
AcDbPolyline
 90
        4
 70
           0
 10
-768.390500119793
 20
265.92981625907
 10
-775.890500119793
 20
266.90481625907
 10
-775.890500119793
 20
264.95481625907
 10
-768.390500119793
 20
265.92981625907
1001
TCAD
1000
TCW_ATTRIBUTE
1002
{
1000
<98>
1002
}
  0
HATCH
  5
324
100
AcDbEntity
  8
0
  6
CONTINUOUS
100
AcDbHatch
 10
0.0
 20
0.0
 30
0.0
210
0.0
220
0.0
230
1.0
  2
SOLID
 70
           1
 71
           1
 91
        1
 92
        3
 72
           0
 73
           1
 93
        3
 10
-768.39050011979316
 20
265.92981625906958
 10
-775.89050011979316
 20
266.90481625906961
 10
-775.89050011979316
 20
264.95481625906956
 97
        1
330
325
 75
           0
 76
           0
 98
        0
1001
TCAD
1000
TCW_ATTRIBUTE
1002
{
1000
<98>
1002
}
  0
LWPOLYLINE
  5
327
102
{ACAD_REACTORS
330
326
102
}
100
AcDbEntity
  8
0
  6
CONTINUOUS
100
AcDbPolyline
 90
        4
 70
           0
 10
-866.390500119793
 20
265.92981625907
 10
-858.890500119793
 20
264.95481625907
 10
-858.890500119793
 20
266.90481625907
 10
-866.390500119793
 20
265.92981625907
1001
TCAD
1000
TCW_ATTRIBUTE
1002
{
1000
<98>
1002
}
  0
HATCH
  5
326
100
AcDbEntity
  8
0
  6
CONTINUOUS
100
AcDbHatch
 10
0.0
 20
0.0
 30
0.0
210
0.0
220
0.0
230
1.0
  2
SOLID
 70
           1
 71
           1
 91
        1
 92
        3
 72
           0
 73
           1
 93
        3
 10
-866.39050011979305
 20
265.92981625906958
 10
-858.89050011979305
 20
264.95481625906956
 10
-858.89050011979305
 20
266.90481625906961
 97
        1
330
327
 75
           0
 76
           0
 98
        0
1001
TCAD
1000
TCW_ATTRIBUTE
1002
{
1000
<98>
1002
}
  0
MTEXT
  5
328
100
AcDbEntity
  8
0
  6
CONTINUOUS
100
AcDbMText
 10
-817.390500119793
 20
265.92981625907
 30
0.0
 40
7.5
 41
0.0
 71
           5
 72
           1
  1
\A1;98
1001
TCAD
1000
TCW_REFPOINT
1002
{
1010
-817.390500119793
1020
265.92981625907
1030
0.0
1002
}
1000
TCW_ATTRIBUTE
1002
{
1000
<98>
1002
}
  0
ENDBLK
  5
329
100
AcDbEntity
  8
0
100
AcDbBlockEnd
  0
BLOCK
  5
33D
100
AcDbEntity
  8
0
100
AcDbBlockBegin
  2
*D14
 70
           1
 10
0.0
 20
0.0
 30
0.0
  3
*D14
  1

  0
LINE
  5
33E
100
AcDbEntity
  8
0
  6
CONTINUOUS
100
AcDbLine
 10
-1104.386919094562
 20
-21.61832839133
 30
0.0
 11
-1135.162859487315
 21
-21.61832839133
 31
0.0
1001
TCAD
1000
TCW_ATTRIBUTE
1002
{
1000
<18>
1002
}
  0
LINE
  5
33F
100
AcDbEntity
  8
0
  6
CONTINUOUS
100
AcDbLine
 10
-1104.386919094562
 20
-39.61832839133
 30
0.0
 11
-1135.162859487315
 21
-39.61832839133
 31
0.0
1001
TCAD
1000
TCW_ATTRIBUTE
1002
{
1000
<18>
1002
}
  0
LWPOLYLINE
  5
340
100
AcDbEntity
  8
0
  6
CONTINUOUS
100
AcDbPolyline
 90
        2
 70
           0
 10
-1130.162859487315
 20
-6.61832839133
 10
-1130.162859487315
 20
-14.11832839133
1001
TCAD
1000
TCW_ATTRIBUTE
1002
{
1000
<18>
1002
}
  0
LWPOLYLINE
  5
341
100
AcDbEntity
  8
0
  6
CONTINUOUS
100
AcDbPolyline
 90
        2
 70
           0
 10
-1130.162859487315
 20
-21.61832839133
 40
0.0
 41
0.0
 10
-1130.162859487315
 20
-39.61832839133
 40
0.0
 41
0.0
1001
TCAD
1000
TCW_ATTRIBUTE
1002
{
1000
<18>
1002
}
  0
LWPOLYLINE
  5
342
100
AcDbEntity
  8
0
  6
CONTINUOUS
100
AcDbPolyline
 90
        2
 70
           0
 10
-1130.162859487315
 20
-52.629803000705
 10
-1130.162859487315
 20
-47.11832839133
1001
TCAD
1000
TCW_ATTRIBUTE
1002
{
1000
<18>
1002
}
  0
LWPOLYLINE
  5
344
102
{ACAD_REACTORS
330
343
102
}
100
AcDbEntity
  8
0
  6
CONTINUOUS
100
AcDbPolyline
 90
        4
 70
           0
 10
-1130.162859487315
 20
-39.61832839133
 10
-1131.137859487315
 20
-47.11832839133
 10
-1129.187859487315
 20
-47.11832839133
 10
-1130.162859487315
 20
-39.61832839133
1001
TCAD
1000
TCW_ATTRIBUTE
1002
{
1000
<18>
1002
}
  0
HATCH
  5
343
100
AcDbEntity
  8
0
  6
CONTINUOUS
100
AcDbHatch
 10
0.0
 20
0.0
 30
0.0
210
0.0
220
0.0
230
1.0
  2
SOLID
 70
           1
 71
           1
 91
        1
 92
        3
 72
           0
 73
           1
 93
        3
 10
-1130.1628594873148
 20
-39.61832839133001
 10
-1131.1378594873147
 20
-47.11832839133001
 10
-1129.1878594873149
 20
-47.11832839133001
 97
        1
330
344
 75
           0
 76
           0
 98
        0
1001
TCAD
1000
TCW_ATTRIBUTE
1002
{
1000
<18>
1002
}
  0
LWPOLYLINE
  5
346
102
{ACAD_REACTORS
330
345
102
}
100
AcDbEntity
  8
0
  6
CONTINUOUS
100
AcDbPolyline
 90
        4
 70
           0
 10
-1130.162859487315
 20
-21.61832839133
 10
-1129.187859487315
 20
-14.11832839133
 10
-1131.137859487315
 20
-14.11832839133
 10
-1130.162859487315
 20
-21.61832839133
1001
TCAD
1000
TCW_ATTRIBUTE
1002
{
1000
<18>
1002
}
  0
HATCH
  5
345
100
AcDbEntity
  8
0
  6
CONTINUOUS
100
AcDbHatch
 10
0.0
 20
0.0
 30
0.0
210
0.0
220
0.0
230
1.0
  2
SOLID
 70
           1
 71
           1
 91
        1
 92
        3
 72
           0
 73
           1
 93
        3
 10
-1130.1628594873148
 20
-21.618328391330042
 10
-1129.1878594873149
 20
-14.118328391330042
 10
-1131.1378594873147
 20
-14.118328391330042
 97
        1
330
346
 75
           0
 76
           0
 98
        0
1001
TCAD
1000
TCW_ATTRIBUTE
1002
{
1000
<18>
1002
}
  0
MTEXT
  5
347
100
AcDbEntity
  8
0
  6
CONTINUOUS
100
AcDbMText
 10
-1130.162859487315
 20
-57.744549094455
 30
0.0
 40
7.5
 41
0.0
 71
           5
 72
           1
  1
\A1;18
 11
0.0
 21
1.0
 31
0.0
1001
TCAD
1000
TCW_REFPOINT
1002
{
1010
-1130.162859487315
1020
-57.744549094455
1030
0.0
1002
}
1000
TCW_ATTRIBUTE
1002
{
1000
<18>
1002
}
  0
ENDBLK
  5
348
100
AcDbEntity
  8
0
100
AcDbBlockEnd
  0
BLOCK
  5
34B
100
AcDbEntity
  8
0
100
AcDbBlockBegin
  2
*D15
 70
           1
 10
0.0
 20
0.0
 30
0.0
  3
*D15
  1

  0
LINE
  5
34C
100
AcDbEntity
  8
0
  6
CONTINUOUS
100
AcDbLine
 10
-1107.886919094562
 20
-41.11832839133
 30
0.0
 11
-1107.886919094562
 21
-76.366589490476
 31
0.0
1001
TCAD
1000
TCW_ATTRIBUTE
1002
{
1000
<40>
1002
}
  0
LINE
  5
34D
100
AcDbEntity
  8
0
  6
CONTINUOUS
100
AcDbLine
 10
-1067.886919094562
 20
-41.11832839133
 30
0.0
 11
-1067.886919094562
 21
-76.366589490476
 31
0.0
1001
TCAD
1000
TCW_ATTRIBUTE
1002
{
1000
<40>
1002
}
  0
LWPOLYLINE
  5
34E
100
AcDbEntity
  8
0
  6
CONTINUOUS
100
AcDbPolyline
 90
        4
 70
           0
 10
-1100.386919094562
 20
-71.366589490476
 10
-1100.386919094562
 20
-71.366589490476
 10
-1100.386919094562
 20
-71.366589490476
 10
-1098.001665188312
 20
-71.366589490476
1001
TCAD
1000
TCW_ATTRIBUTE
1002
{
1000
<40>
1002
}
  0
LWPOLYLINE
  5
34F
100
AcDbEntity
  8
0
  6
CONTINUOUS
100
AcDbPolyline
 90
        4
 70
           0
 10
-1075.386919094562
 20
-71.366589490476
 10
-1075.386919094562
 20
-71.366589490476
 10
-1075.386919094562
 20
-71.366589490476
 10
-1077.772173000812
 20
-71.366589490476
1001
TCAD
1000
TCW_ATTRIBUTE
1002
{
1000
<40>
1002
}
  0
LWPOLYLINE
  5
351
102
{ACAD_REACTORS
330
350
102
}
100
AcDbEntity
  8
0
  6
CONTINUOUS
100
AcDbPolyline
 90
        4
 70
           0
 10
-1107.886919094562
 20
-71.366589490476
 10
-1100.386919094562
 20
-72.341589490476
 10
-1100.386919094562
 20
-70.391589490476
 10
-1107.886919094562
 20
-71.366589490476
1001
TCAD
1000
TCW_ATTRIBUTE
1002
{
1000
<40>
1002
}
  0
HATCH
  5
350
100
AcDbEntity
  8
0
  6
CONTINUOUS
100
AcDbHatch
 10
0.0
 20
0.0
 30
0.0
210
0.0
220
0.0
230
1.0
  2
SOLID
 70
           1
 71
           1
 91
        1
 92
        3
 72
           0
 73
           1
 93
        3
 10
-1107.8869190945616
 20
-71.366589490476059
 10
-1100.3869190945616
 20
-72.341589490476039
 10
-1100.3869190945616
 20
-70.391589490476051
 97
        1
330
351
 75
           0
 76
           0
 98
        0
1001
TCAD
1000
TCW_ATTRIBUTE
1002
{
1000
<40>
1002
}
  0
LWPOLYLINE
  5
353
102
{ACAD_REACTORS
330
352
102
}
100
AcDbEntity
  8
0
  6
CONTINUOUS
100
AcDbPolyline
 90
        4
 70
           0
 10
-1067.886919094562
 20
-71.366589490476
 10
-1075.386919094562
 20
-70.391589490476
 10
-1075.386919094562
 20
-72.341589490476
 10
-1067.886919094562
 20
-71.366589490476
1001
TCAD
1000
TCW_ATTRIBUTE
1002
{
1000
<40>
1002
}
  0
HATCH
  5
352
100
AcDbEntity
  8
0
  6
CONTINUOUS
100
AcDbHatch
 10
0.0
 20
0.0
 30
0.0
210
0.0
220
0.0
230
1.0
  2
SOLID
 70
           1
 71
           1
 91
        1
 92
        3
 72
           0
 73
           1
 93
        3
 10
-1067.8869190945618
 20
-71.366589490475974
 10
-1075.3869190945618
 20
-70.391589490475994
 10
-1075.3869190945618
 20
-72.341589490475982
 97
        1
330
353
 75
           0
 76
           0
 98
        0
1001
TCAD
1000
TCW_ATTRIBUTE
1002
{
1000
<40>
1002
}
  0
MTEXT
  5
354
100
AcDbEntity
  8
0
  6
CONTINUOUS
100
AcDbMText
 10
-1087.886919094562
 20
-71.366589490476
 30
0.0
 40
7.5
 41
0.0
 71
           5
 72
           1
  1
\A1;40
1001
TCAD
1000
TCW_REFPOINT
1002
{
1010
-1087.886919094562
1020
-71.366589490476
1030
0.0
1002
}
1000
TCW_ATTRIBUTE
1002
{
1000
<40>
1002
}
  0
ENDBLK
  5
355
100
AcDbEntity
  8
0
100
AcDbBlockEnd
  0
ENDSEC
  0
SECTION
  2
ENTITIES
  0
VIEWPORT
  5
359
100
AcDbEntity
 67
           1
  8
0
100
AcDbViewport
 10
147.9440113845
 20
105.11934809265
 30
0.0
 40
390.2009887696
 41
204.3909950257
 68
           1
 69
           1
1001
ACAD
1000
MVIEW
1002
{
1070
          16
1010
0.0
1020
0.0
1030
0.0
1010
0.0
1020
0.0
1030
1.0
1040
0.0
1040
204.3909950257
1040
147.9440113845
1040
105.11934809265
1040
50.0
1040
0.0
1040
0.0
1070
           0
1070
         100
1070
           0
1070
           1
1070
           0
1070
           0
1070
           0
1070
           0
1040
0.0
1040
0.0
1040
0.0
1040
2.5
1040
2.5
1040
2.5
1040
2.5
1070
           0
1002
{
1002
}
1002
}
  0
VIEWPORT
  5
35A
100
AcDbEntity
 67
           1
  8
0
  6
CONTINUOUS
100
AcDbViewport
 10
148.1557113845
 20
104.9540459656
 30
0.0
 40
296.311422769
 41
209.9080919312
 68
           2
 69
           2
1001
ACAD
1000
MVIEW
1002
{
1070
          16
1010
0.0
1020
0.0
1030
0.0
1010
0.0
1020
0.0
1030
1.0
1040
0.0
1040
210.395882551473
1040
148.249995431525
1040
104.74999780377
1040
92.206120906687
1040
0.0
1040
0.0
1070
           0
1070
         100
1070
           0
1070
           1
1070
           0
1070
           0
1070
           0
1070
           0
1040
0.0
1040
0.0
1040
0.0
1040
0.5
1040
0.5
1040
0.5
1040
0.5
1070
           0
1002
{
1003
NORMTEILE
1003
INFO
1003
KAUFTEIL
1003
F_HRUNG
1003
ABDECKUNG
1003
SEITENPLATTEN
1003
ENDSCHALTER
1003
ANTRIEB
1003
$CONSTRUCTION
1003
SCHRAFFUREN
1002
}
1002
}
  0
VIEWPORT
  5
35B
100
AcDbEntity
 67
           1
  8
0
  6
CONTINUOUS
100
AcDbViewport
 10
148.1557113845
 20
104.9540459656
 30
0.0
 40
296.311422769
 41
209.9080919312
 68
           3
 69
           3
1001
ACAD
1000
MVIEW
1002
{
1070
          16
1010
0.0
1020
0.0
1030
0.0
1010
0.0
1020
0.0
1030
1.0
1040
0.0
1040
210.395882551473
1040
148.249995431525
1040
104.74999780377
1040
92.206120906687
1040
0.0
1040
0.0
1070
           0
1070
         100
1070
           0
1070
           1
1070
           0
1070
           0
1070
           0
1070
           0
1040
0.0
1040
0.0
1040
0.0
1040
0.5
1040
0.5
1040
0.5
1040
0.5
1070
           0
1002
{
1003
NORMTEILE
1003
INFO
1003
KAUFTEIL
1003
F_HRUNG
1003
ABDECKUNG
1003
SEITENPLATTEN
1003
ENDSCHALTER
1003
ANTRIEB
1003
$CONSTRUCTION
1003
SCHRAFFUREN
1002
}
1002
}
  0
VIEWPORT
  5
35C
100
AcDbEntity
 67
           1
  8
0
  6
CONTINUOUS
100
AcDbViewport
 10
148.1557113845
 20
104.9540459656
 30
0.0
 40
296.311422769
 41
209.9080919312
 68
           4
 69
           4
1001
ACAD
1000
MVIEW
1002
{
1070
          16
1010
0.0
1020
0.0
1030
0.0
1010
0.0
1020
0.0
1030
1.0
1040
0.0
1040
210.395882551473
1040
148.249995431525
1040
104.74999780377
1040
92.206120906687
1040
0.0
1040
0.0
1070
           0
1070
         100
1070
           0
1070
           1
1070
           0
1070
           0
1070
           0
1070
           0
1040
0.0
1040
0.0
1040
0.0
1040
0.5
1040
0.5
1040
0.5
1040
0.5
1070
           0
1002
{
1003
NORMTEILE
1003
INFO
1003
KAUFTEIL
1003
F_HRUNG
1003
ABDECKUNG
1003
SEITENPLATTEN
1003
ENDSCHALTER
1003
ANTRIEB
1003
$CONSTRUCTION
1003
SCHRAFFUREN
1002
}
1002
}
  0
LINE
  5
82
100
AcDbEntity
  8
F_HRUNG
  6
STRICHPUNKT
 48
0.20000000298
100
AcDbLine
 10
-715.018071257367
 20
8.38167160867
 30
0.0
 11
-845.3855039345
 21
8.38167160867
 31
0.0
1001
ACAD
1000
TCW40_DEV_WIDTH
1002
{
1040
0.003937007859
1002
}
1001
TCAD
1000
TCW_ATTRIBUTE
1002
{
1000
Linie
1002
}
  0
ARC
  5
83
100
AcDbEntity
  8
F_HRUNG
  6
CONTINUOUS
 48
0.20000000298
100
AcDbCircle
 10
-841.8855039345
 20
-20.61832839133
 30
0.0
 40
1.0
100
AcDbArc
 50
180.0
 51
270.0
1001
ACAD
1000
TCW40_DEV_WIDTH
1002
{
1040
0.011811023578
1002
}
1001
TCAD
1000
TCW_ATTRIBUTE
1002
{
1000
Linie
1002
}
  0
LINE
  5
84
100
AcDbEntity
  8
F_HRUNG
  6
CONTINUOUS
 48
0.20000000298
100
AcDbLine
 10
-842.8855039345
 20
-20.61832839133
 30
0.0
 11
-842.8855039345
 21
3.38167160867
 31
0.0
1001
ACAD
1000
TCW40_DEV_WIDTH
1002
{
1040
0.011811023578
1002
}
1001
TCAD
1000
TCW_ATTRIBUTE
1002
{
1000
Linie
1002
}
  0
LINE
  5
85
100
AcDbEntity
  8
F_HRUNG
  6
CONTINUOUS
 48
0.20000000298
100
AcDbLine
 10
-842.8855039345
 20
13.38167160867
 30
0.0
 11
-842.8855039345
 21
37.38167160867
 31
0.0
1001
ACAD
1000
TCW40_DEV_WIDTH
1002
{
1040
0.011811023578
1002
}
1001
TCAD
1000
TCW_ATTRIBUTE
1002
{
1000
Linie
1002
}
  0
ARC
  5
86
100
AcDbEntity
  8
F_HRUNG
  6
CONTINUOUS
 48
0.20000000298
100
AcDbCircle
 10
-841.8855039345
 20
37.38167160867
 30
0.0
 40
1.0
100
AcDbArc
 50
90.0
 51
180.0
1001
ACAD
1000
TCW40_DEV_WIDTH
1002
{
1040
0.011811023578
1002
}
1001
TCAD
1000
TCW_ATTRIBUTE
1002
{
1000
Linie
1002
}
  0
LINE
  5
87
100
AcDbEntity
  8
SEITENPLATTEN
  6
CONTINUOUS
 48
0.20000000298
100
AcDbLine
 10
-832.8855039345
 20
46.38167160867
 30
0.0
 11
-832.8855039345
 21
38.38167160867
 31
0.0
1001
ACAD
1000
TCW40_DEV_WIDTH
1002
{
1040
0.011811023578
1002
}
1001
TCAD
1000
TCW_ATTRIBUTE
1002
{
1000
Linie
1002
}
  0
LINE
  5
88
100
AcDbEntity
  8
SEITENPLATTEN
  6
CONTINUOUS
 48
0.20000000298
100
AcDbLine
 10
-719.39050393449
 20
46.38167160867
 30
0.0
 11
-832.8855039345
 21
46.38167160867
 31
0.0
1001
ACAD
1000
TCW40_DEV_WIDTH
1002
{
1040
0.011811023578
1002
}
1001
TCAD
1000
TCW_ATTRIBUTE
1002
{
1000
Linie
1002
}
  0
LINE
  5
89
100
AcDbEntity
  8
SEITENPLATTEN
  6
CONTINUOUS
 48
0.20000000298
100
AcDbLine
 10
-832.8855039345
 20
-29.61832839133
 30
0.0
 11
-832.8855039345
 21
-21.61832839133
 31
0.0
1001
ACAD
1000
TCW40_DEV_WIDTH
1002
{
1040
0.011811023578
1002
}
1001
TCAD
1000
TCW_ATTRIBUTE
1002
{
1000
Linie
1002
}
  0
LINE
  5
8A
100
AcDbEntity
  8
SEITENPLATTEN
  6
CONTINUOUS
 48
0.20000000298
100
AcDbLine
 10
-719.39050393449
 20
-29.61832839133
 30
0.0
 11
-832.8855039345
 21
-29.61832839133
 31
0.0
1001
ACAD
1000
TCW40_DEV_WIDTH
1002
{
1040
0.011811023578
1002
}
1001
TCAD
1000
TCW_ATTRIBUTE
1002
{
1000
Linie
1002
}
  0
LINE
  5
8B
102
{ACAD_REACTORS
330
9F
102
}
100
AcDbEntity
  8
KAUFTEIL
  6
CONTINUOUS
 48
0.300000011921
100
AcDbLine
 10
-813.390500119793
 20
46.38167160867
 30
0.0
 11
-813.390500119793
 21
50.38167160867
 31
0.0
1001
ACAD
1000
TCW40_DEV_WIDTH
1002
{
1040
0.011811023578
1002
}
1001
TCAD
1000
TCW_ATTRIBUTE
1002
{
1000
Linie
1002
}
  0
LINE
  5
8C
102
{ACAD_REACTORS
330
9F
102
}
100
AcDbEntity
  8
KAUFTEIL
  6
STRICHPUNKT
 48
0.20000000298
100
AcDbLine
 10
-804.090500119793
 20
46.38167160867
 30
0.0
 11
-804.090500119793
 21
50.38167160867
 31
0.0
1001
ACAD
1000
TCW40_DEV_WIDTH
1002
{
1040
0.003937007859
1002
}
1001
TCAD
1000
TCW_ATTRIBUTE
1002
{
1000
Linie
1002
}
  0
LINE
  5
8D
102
{ACAD_REACTORS
330
9F
102
}
100
AcDbEntity
  8
KAUFTEIL
  6
CONTINUOUS
 48
0.300000011921
100
AcDbLine
 10
-794.390500119793
 20
50.38167160867
 30
0.0
 11
-791.890500119793
 21
56.38167160867
 31
0.0
1001
ACAD
1000
TCW40_DEV_WIDTH
1002
{
1040
0.011811023578
1002
}
1001
TCAD
1000
TCW_ATTRIBUTE
1002
{
1000
Linie
1002
}
  0
LINE
  5
8E
102
{ACAD_REACTORS
330
9F
102
}
100
AcDbEntity
  8
KAUFTEIL
  6
CONTINUOUS
 48
0.300000011921
100
AcDbLine
 10
-782.640500119793
 20
56.38167160867
 30
0.0
 11
-782.640500119793
 21
66.68167160867
 31
0.0
1001
ACAD
1000
TCW40_DEV_WIDTH
1002
{
1040
0.011811023578
1002
}
1001
TCAD
1000
TCW_ATTRIBUTE
1002
{
1000
Linie
1002
}
  0
LINE
  5
8F
102
{ACAD_REACTORS
330
9F
102
}
100
AcDbEntity
  8
KAUFTEIL
  6
CONTINUOUS
 48
0.300000011921
100
AcDbLine
 10
-782.640500119793
 20
66.68167160867
 30
0.0
 11
-768.390500119793
 21
66.68167160867
 31
0.0
1001
ACAD
1000
TCW40_DEV_WIDTH
1002
{
1040
0.011811023578
1002
}
1001
TCAD
1000
TCW_ATTRIBUTE
1002
{
1000
Linie
1002
}
  0
LINE
  5
90
102
{ACAD_REACTORS
330
9F
102
}
100
AcDbEntity
  8
KAUFTEIL
  6
CONTINUOUS
 48
0.300000011921
100
AcDbLine
 10
-768.390500119793
 20
56.38167160867
 30
0.0
 11
-791.890500119793
 21
56.38167160867
 31
0.0
1001
ACAD
1000
TCW40_DEV_WIDTH
1002
{
1040
0.011811023578
1002
}
1001
TCAD
1000
TCW_ATTRIBUTE
1002
{
1000
Linie
1002
}
  0
LINE
  5
91
102
{ACAD_REACTORS
330
9F
102
}
100
AcDbEntity
  8
KAUFTEIL
  6
CONTINUOUS
 48
0.300000011921
100
AcDbLine
 10
-768.390500119793
 20
50.38167160867
 30
0.0
 11
-813.390500119793
 21
50.38167160867
 31
0.0
1001
ACAD
1000
TCW40_DEV_WIDTH
1002
{
1040
0.011811023578
1002
}
1001
TCAD
1000
TCW_ATTRIBUTE
1002
{
1000
Linie
1002
}
  0
LINE
  5
92
102
{ACAD_REACTORS
330
9F
102
}
100
AcDbEntity
  8
KAUFTEIL
  6
STRICHPUNKT
 48
0.300000011921
100
AcDbLine
 10
-813.390500119793
 20
48.38167160867
 30
0.0
 11
-768.390500119793
 21
48.38167160867
 31
0.0
1001
ACAD
1000
TCW40_DEV_WIDTH
1002
{
1040
0.003937007859
1002
}
1001
TCAD
1000
TCW_ATTRIBUTE
1002
{
1000
Linie
1002
}
  0
LINE
  5
93
102
{ACAD_REACTORS
330
9F
102
}
100
AcDbEntity
  8
KAUFTEIL
  6
CONTINUOUS
 48
0.300000011921
100
AcDbLine
 10
-768.390500119793
 20
46.38167160867
 30
0.0
 11
-813.390500119793
 21
46.38167160867
 31
0.0
1001
ACAD
1000
TCW40_DEV_WIDTH
1002
{
1040
0.011811023578
1002
}
1001
TCAD
1000
TCW_ATTRIBUTE
1002
{
1000
Linie
1002
}
  0
LINE
  5
94
102
{ACAD_REACTORS
330
9F
102
}
100
AcDbEntity
  8
KAUFTEIL
  6
CONTINUOUS
 48
0.300000011921
100
AcDbLine
 10
-723.390500119793
 20
46.38167160867
 30
0.0
 11
-723.390500119793
 21
50.38167160867
 31
0.0
1001
ACAD
1000
TCW40_DEV_WIDTH
1002
{
1040
0.011811023578
1002
}
1001
TCAD
1000
TCW_ATTRIBUTE
1002
{
1000
Linie
1002
}
  0
LINE
  5
95
102
{ACAD_REACTORS
330
9F
102
}
100
AcDbEntity
  8
KAUFTEIL
  6
STRICHPUNKT
 48
0.20000000298
100
AcDbLine
 10
-732.690500119793
 20
46.38167160867
 30
0.0
 11
-732.690500119793
 21
50.38167160867
 31
0.0
1001
ACAD
1000
TCW40_DEV_WIDTH
1002
{
1040
0.003937007859
1002
}
1001
TCAD
1000
TCW_ATTRIBUTE
1002
{
1000
Linie
1002
}
  0
LINE
  5
96
102
{ACAD_REACTORS
330
9F
102
}
100
AcDbEntity
  8
KAUFTEIL
  6
CONTINUOUS
 48
0.300000011921
100
AcDbLine
 10
-742.390500119793
 20
50.38167160867
 30
0.0
 11
-744.890500119793
 21
56.38167160867
 31
0.0
1001
ACAD
1000
TCW40_DEV_WIDTH
1002
{
1040
0.011811023578
1002
}
1001
TCAD
1000
TCW_ATTRIBUTE
1002
{
1000
Linie
1002
}
  0
LINE
  5
97
102
{ACAD_REACTORS
330
9F
102
}
100
AcDbEntity
  8
KAUFTEIL
  6
CONTINUOUS
 48
0.300000011921
100
AcDbLine
 10
-754.140500119793
 20
56.38167160867
 30
0.0
 11
-754.140500119793
 21
66.68167160867
 31
0.0
1001
ACAD
1000
TCW40_DEV_WIDTH
1002
{
1040
0.011811023578
1002
}
1001
TCAD
1000
TCW_ATTRIBUTE
1002
{
1000
Linie
1002
}
  0
LINE
  5
98
102
{ACAD_REACTORS
330
9F
102
}
100
AcDbEntity
  8
KAUFTEIL
  6
CONTINUOUS
 48
0.300000011921
100
AcDbLine
 10
-754.140500119793
 20
66.68167160867
 30
0.0
 11
-768.390500119793
 21
66.68167160867
 31
0.0
1001
ACAD
1000
TCW40_DEV_WIDTH
1002
{
1040
0.011811023578
1002
}
1001
TCAD
1000
TCW_ATTRIBUTE
1002
{
1000
Linie
1002
}
  0
LINE
  5
99
102
{ACAD_REACTORS
330
9F
102
}
100
AcDbEntity
  8
KAUFTEIL
  6
CONTINUOUS
 48
0.300000011921
100
AcDbLine
 10
-768.390500119793
 20
56.38167160867
 30
0.0
 11
-744.890500119793
 21
56.38167160867
 31
0.0
1001
ACAD
1000
TCW40_DEV_WIDTH
1002
{
1040
0.011811023578
1002
}
1001
TCAD
1000
TCW_ATTRIBUTE
1002
{
1000
Linie
1002
}
  0
LINE
  5
9A
102
{ACAD_REACTORS
330
9F
102
}
100
AcDbEntity
  8
KAUFTEIL
  6
CONTINUOUS
 48
0.300000011921
100
AcDbLine
 10
-768.390500119793
 20
50.38167160867
 30
0.0
 11
-723.390500119793
 21
50.38167160867
 31
0.0
1001
ACAD
1000
TCW40_DEV_WIDTH
1002
{
1040
0.011811023578
1002
}
1001
TCAD
1000
TCW_ATTRIBUTE
1002
{
1000
Linie
1002
}
  0
LINE
  5
9B
102
{ACAD_REACTORS
330
9F
102
}
100
AcDbEntity
  8
KAUFTEIL
  6
STRICHPUNKT
 48
0.300000011921
100
AcDbLine
 10
-723.390500119793
 20
48.38167160867
 30
0.0
 11
-768.390500119793
 21
48.38167160867
 31
0.0
1001
ACAD
1000
TCW40_DEV_WIDTH
1002
{
1040
0.003937007859
1002
}
1001
TCAD
1000
TCW_ATTRIBUTE
1002
{
1000
Linie
1002
}
  0
LINE
  5
9C
102
{ACAD_REACTORS
330
9F
102
}
100
AcDbEntity
  8
KAUFTEIL
  6
CONTINUOUS
 48
0.300000011921
100
AcDbLine
 10
-768.390500119793
 20
46.38167160867
 30
0.0
 11
-723.390500119793
 21
46.38167160867
 31
0.0
1001
ACAD
1000
TCW40_DEV_WIDTH
1002
{
1040
0.011811023578
1002
}
1001
TCAD
1000
TCW_ATTRIBUTE
1002
{
1000
Linie
1002
}
  0
LINE
  5
9D
102
{ACAD_REACTORS
330
9F
102
}
100
AcDbEntity
  8
KAUFTEIL
  6
STRICHPUNKT
 48
0.300000011921
100
AcDbLine
 10
-768.390500119793
 20
40.38167160867
 30
0.0
 11
-768.390500119793
 21
66.68167160867
 31
0.0
1001
ACAD
1000
TCW40_DEV_WIDTH
1002
{
1040
0.003937007859
1002
}
1001
TCAD
1000
TCW_ATTRIBUTE
1002
{
1000
Linie
1002
}
  0
TEXT
  5
9E
102
{ACAD_REACTORS
330
9F
102
}
100
AcDbEntity
  8
KAUFTEIL
  6
CONTINUOUS
100
AcDbText
 10
-745.92360884527
 20
54.005054052126
 30
0.0
 40
0.999999976158
  1
Stahlblechflanschlager Ø20 UBPFL204
 50
180.0
 11
-745.92360884527
 21
54.338387377513
 31
0.0
100
AcDbText
 73
           1
1001
TCAD
1000
TCW40_TEXT
1002
{
1000
IsonormD
1070
           0
1070
        2049
1002
}
  0
LINE
  5
A0
102
{ACAD_REACTORS
330
AF
102
}
100
AcDbEntity
  8
KAUFTEIL
  6
CONTINUOUS
 48
0.300000011921
100
AcDbLine
 10
-813.390500119793
 20
-33.61832839133
 30
0.0
 11
-813.390500119793
 21
-29.61832839133
 31
0.0
1001
ACAD
1000
TCW40_DEV_WIDTH
1002
{
1040
0.011811023578
1002
}
1001
TCAD
1000
TCW_ATTRIBUTE
1002
{
1000
Linie
1002
}
  0
LINE
  5
A1
102
{ACAD_REACTORS
330
AF
102
}
100
AcDbEntity
  8
KAUFTEIL
  6
STRICHPUNKT
 48
0.20000000298
100
AcDbLine
 10
-804.090500119793
 20
-33.61832839133
 30
0.0
 11
-804.090500119793
 21
-29.61832839133
 31
0.0
1001
ACAD
1000
TCW40_DEV_WIDTH
1002
{
1040
0.003937007859
1002
}
1001
TCAD
1000
TCW_ATTRIBUTE
1002
{
1000
Linie
1002
}
  0
LINE
  5
A2
102
{ACAD_REACTORS
330
AF
102
}
100
AcDbEntity
  8
KAUFTEIL
  6
CONTINUOUS
 48
0.300000011921
100
AcDbLine
 10
-791.890500119793
 20
-39.61832839133
 30
0.0
 11
-794.390500119793
 21
-33.61832839133
 31
0.0
1001
ACAD
1000
TCW40_DEV_WIDTH
1002
{
1040
0.011811023578
1002
}
1001
TCAD
1000
TCW_ATTRIBUTE
1002
{
1000
Linie
1002
}
  0
LINE
  5
A3
102
{ACAD_REACTORS
330
AF
102
}
100
AcDbEntity
  8
KAUFTEIL
  6
CONTINUOUS
 48
0.300000011921
100
AcDbLine
 10
-768.390500119793
 20
-29.61832839133
 30
0.0
 11
-813.390500119793
 21
-29.61832839133
 31
0.0
1001
ACAD
1000
TCW40_DEV_WIDTH
1002
{
1040
0.011811023578
1002
}
1001
TCAD
1000
TCW_ATTRIBUTE
1002
{
1000
Linie
1002
}
  0
LINE
  5
A4
102
{ACAD_REACTORS
330
AF
102
}
100
AcDbEntity
  8
KAUFTEIL
  6
STRICHPUNKT
 48
0.300000011921
100
AcDbLine
 10
-813.390500119793
 20
-31.61832839133
 30
0.0
 11
-768.390500119793
 21
-31.61832839133
 31
0.0
1001
ACAD
1000
TCW40_DEV_WIDTH
1002
{
1040
0.003937007859
1002
}
1001
TCAD
1000
TCW_ATTRIBUTE
1002
{
1000
Linie
1002
}
  0
LINE
  5
A5
102
{ACAD_REACTORS
330
AF
102
}
100
AcDbEntity
  8
KAUFTEIL
  6
CONTINUOUS
 48
0.300000011921
100
AcDbLine
 10
-768.390500119793
 20
-33.61832839133
 30
0.0
 11
-813.390500119793
 21
-33.61832839133
 31
0.0
1001
ACAD
1000
TCW40_DEV_WIDTH
1002
{
1040
0.011811023578
1002
}
1001
TCAD
1000
TCW_ATTRIBUTE
1002
{
1000
Linie
1002
}
  0
LINE
  5
A6
102
{ACAD_REACTORS
330
AF
102
}
100
AcDbEntity
  8
KAUFTEIL
  6
CONTINUOUS
 48
0.300000011921
100
AcDbLine
 10
-768.390500119793
 20
-39.61832839133
 30
0.0
 11
-791.890500119793
 21
-39.61832839133
 31
0.0
1001
ACAD
1000
TCW40_DEV_WIDTH
1002
{
1040
0.011811023578
1002
}
1001
TCAD
1000
TCW_ATTRIBUTE
1002
{
1000
Linie
1002
}
  0
LINE
  5
A7
102
{ACAD_REACTORS
330
AF
102
}
100
AcDbEntity
  8
KAUFTEIL
  6
CONTINUOUS
 48
0.300000011921
100
AcDbLine
 10
-723.390500119793
 20
-33.61832839133
 30
0.0
 11
-723.390500119793
 21
-29.61832839133
 31
0.0
1001
ACAD
1000
TCW40_DEV_WIDTH
1002
{
1040
0.011811023578
1002
}
1001
TCAD
1000
TCW_ATTRIBUTE
1002
{
1000
Linie
1002
}
  0
LINE
  5
A8
102
{ACAD_REACTORS
330
AF
102
}
100
AcDbEntity
  8
KAUFTEIL
  6
STRICHPUNKT
 48
0.20000000298
100
AcDbLine
 10
-732.690500119793
 20
-33.61832839133
 30
0.0
 11
-732.690500119793
 21
-29.61832839133
 31
0.0
1001
ACAD
1000
TCW40_DEV_WIDTH
1002
{
1040
0.003937007859
1002
}
1001
TCAD
1000
TCW_ATTRIBUTE
1002
{
1000
Linie
1002
}
  0
LINE
  5
A9
102
{ACAD_REACTORS
330
AF
102
}
100
AcDbEntity
  8
KAUFTEIL
  6
CONTINUOUS
 48
0.300000011921
100
AcDbLine
 10
-744.890500119793
 20
-39.61832839133
 30
0.0
 11
-742.390500119793
 21
-33.61832839133
 31
0.0
1001
ACAD
1000
TCW40_DEV_WIDTH
1002
{
1040
0.011811023578
1002
}
1001
TCAD
1000
TCW_ATTRIBUTE
1002
{
1000
Linie
1002
}
  0
LINE
  5
AA
102
{ACAD_REACTORS
330
AF
102
}
100
AcDbEntity
  8
KAUFTEIL
  6
CONTINUOUS
 48
0.300000011921
100
AcDbLine
 10
-768.390500119793
 20
-29.61832839133
 30
0.0
 11
-723.390500119793
 21
-29.61832839133
 31
0.0
1001
ACAD
1000
TCW40_DEV_WIDTH
1002
{
1040
0.011811023578
1002
}
1001
TCAD
1000
TCW_ATTRIBUTE
1002
{
1000
Linie
1002
}
  0
LINE
  5
AB
102
{ACAD_REACTORS
330
AF
102
}
100
AcDbEntity
  8
KAUFTEIL
  6
STRICHPUNKT
 48
0.300000011921
100
AcDbLine
 10
-723.390500119793
 20
-31.61832839133
 30
0.0
 11
-768.390500119793
 21
-31.61832839133
 31
0.0
1001
ACAD
1000
TCW40_DEV_WIDTH
1002
{
1040
0.003937007859
1002
}
1001
TCAD
1000
TCW_ATTRIBUTE
1002
{
1000
Linie
1002
}
  0
LINE
  5
AC
102
{ACAD_REACTORS
330
AF
102
}
100
AcDbEntity
  8
KAUFTEIL
  6
CONTINUOUS
 48
0.300000011921
100
AcDbLine
 10
-768.390500119793
 20
-33.61832839133
 30
0.0
 11
-723.390500119793
 21
-33.61832839133
 31
0.0
1001
ACAD
1000
TCW40_DEV_WIDTH
1002
{
1040
0.011811023578
1002
}
1001
TCAD
1000
TCW_ATTRIBUTE
1002
{
1000
Linie
1002
}
  0
LINE
  5
AD
102
{ACAD_REACTORS
330
AF
102
}
100
AcDbEntity
  8
KAUFTEIL
  6
CONTINUOUS
 48
0.300000011921
100
AcDbLine
 10
-768.390500119793
 20
-39.61832839133
 30
0.0
 11
-744.890500119793
 21
-39.61832839133
 31
0.0
1001
ACAD
1000
TCW40_DEV_WIDTH
1002
{
1040
0.011811023578
1002
}
1001
TCAD
1000
TCW_ATTRIBUTE
1002
{
1000
Linie
1002
}
  0
LINE
  5
AE
102
{ACAD_REACTORS
330
AF
102
}
100
AcDbEntity
  8
KAUFTEIL
  6
STRICHPUNKT
 48
0.300000011921
100
AcDbLine
 10
-768.390500119793
 20
-39.61832839133
 30
0.0
 11
-768.390500119793
 21
-13.31832839133
 31
0.0
1001
ACAD
1000
TCW40_DEV_WIDTH
1002
{
1040
0.003937007859
1002
}
1001
TCAD
1000
TCW_ATTRIBUTE
1002
{
1000
Linie
1002
}
  0
LINE
  5
B0
100
AcDbEntity
  8
SEITENPLATTEN
  6
CONTINUOUS
 48
0.20000000298
100
AcDbLine
 10
-759.390500119793
 20
-44.61832839133
 30
0.0
 11
-758.390500119793
 21
-43.61832839133
 31
0.0
1001
ACAD
1000
TCW40_DEV_WIDTH
1002
{
1040
0.011811023578
1002
}
1001
TCAD
1000
TCW_ATTRIBUTE
1002
{
1000
Linie
1002
}
  0
LINE
  5
B1
100
AcDbEntity
  8
SEITENPLATTEN
  6
CONTINUOUS
 48
0.20000000298
100
AcDbLine
 10
-759.390500119793
 20
-44.61832839133
 30
0.0
 11
-777.390500119793
 21
-44.61832839133
 31
0.0
1001
ACAD
1000
TCW40_DEV_WIDTH
1002
{
1040
0.011811023578
1002
}
1001
TCAD
1000
TCW_ATTRIBUTE
1002
{
1000
Linie
1002
}
  0
LINE
  5
B2
100
AcDbEntity
  8
SEITENPLATTEN
  6
STRICHPUNKT
 48
0.20000000298
100
AcDbLine
 10
-768.390500119793
 20
172.779956017213
 30
0.0
 11
-768.390500119793
 21
-49.612240656738
 31
0.0
1001
ACAD
1000
TCW40_DEV_WIDTH
1002
{
1040
0.003937007859
1002
}
1001
TCAD
1000
TCW_ATTRIBUTE
1002
{
1000
Linie
1002
}
  0
LINE
  5
B3
100
AcDbEntity
  8
SEITENPLATTEN
  6
CONTINUOUS
 48
0.20000000298
100
AcDbLine
 10
-778.390500119793
 20
-43.61832839133
 30
0.0
 11
-777.390500119793
 21
-44.61832839133
 31
0.0
1001
ACAD
1000
TCW40_DEV_WIDTH
1002
{
1040
0.011811023578
1002
}
1001
TCAD
1000
TCW_ATTRIBUTE
1002
{
1000
Linie
1002
}
  0
LINE
  5
B4
100
AcDbEntity
  8
SEITENPLATTEN
  6
CONTINUOUS
 48
0.20000000298
100
AcDbLine
 10
-778.390500119793
 20
-43.61832839133
 30
0.0
 11
-758.390500119793
 21
-43.61832839133
 31
0.0
1001
ACAD
1000
TCW40_DEV_WIDTH
1002
{
1040
0.011811023578
1002
}
1001
TCAD
1000
TCW_ATTRIBUTE
1002
{
1000
Linie
1002
}
  0
LINE
  5
B5
100
AcDbEntity
  8
SEITENPLATTEN
  6
CONTINUOUS
 48
0.20000000298
100
AcDbLine
 10
-778.390500119793
 20
-39.61832839133
 30
0.0
 11
-778.390500119793
 21
-43.61832839133
 31
0.0
1001
ACAD
1000
TCW40_DEV_WIDTH
1002
{
1040
0.011811023578
1002
}
1001
TCAD
1000
TCW_ATTRIBUTE
1002
{
1000
Linie
1002
}
  0
LINE
  5
B6
100
AcDbEntity
  8
SEITENPLATTEN
  6
CONTINUOUS
 48
0.20000000298
100
AcDbLine
 10
-758.390500119793
 20
-39.61832839133
 30
0.0
 11
-758.390500119793
 21
-43.61832839133
 31
0.0
1001
ACAD
1000
TCW40_DEV_WIDTH
1002
{
1040
0.011811023578
1002
}
1001
TCAD
1000
TCW_ATTRIBUTE
1002
{
1000
Linie
1002
}
  0
LINE
  5
B7
100
AcDbEntity
  8
F_HRUNG
  6
CONTINUOUS
 48
0.20000000298
100
AcDbLine
 10
-717.385503934489
 20
48.381671608657
 30
0.0
 11
-717.385503934489
 21
-31.618328391343
 31
0.0
1001
ACAD
1000
TCW40_DEV_WIDTH
1002
{
1040
0.011811023578
1002
}
1001
TCAD
1000
TCW_ATTRIBUTE
1002
{
1000
Linie
1002
}
  0
LINE
  5
B8
100
AcDbEntity
  8
F_HRUNG
  6
CONTINUOUS
 48
0.20000000298
100
AcDbLine
 10
-723.390500119793
 20
-31.618328391343
 30
0.0
 11
-717.385503934489
 21
-31.618328391343
 31
0.0
1001
ACAD
1000
TCW40_DEV_WIDTH
1002
{
1040
0.011811023578
1002
}
1001
TCAD
1000
TCW_ATTRIBUTE
1002
{
1000
Linie
1002
}
  0
LINE
  5
B9
100
AcDbEntity
  8
ABDECKUNG
  6
CONTINUOUS
 48
0.20000000298
100
AcDbLine
 10
-718.390500119793
 20
45.38167160867
 30
0.0
 11
-818.3855039345
 21
45.38167160867
 31
0.0
1001
ACAD
1000
TCW40_DEV_WIDTH
1002
{
1040
0.011811023578
1002
}
1001
TCAD
1000
TCW_ATTRIBUTE
1002
{
1000
Linie
1002
}
1000
TCW_CUSTOM_DATA
1002
{
1000
#$AUX@_ToolInfo Properties
1070
           8
1000
Ändern^J2Linienzusammenführen@2Linienzusammenführen
1002
}
  0
LINE
  5
BA
100
AcDbEntity
  8
ABDECKUNG
  6
CONTINUOUS
 48
0.20000000298
100
AcDbLine
 10
-718.390500119793
 20
-28.61832839133
 30
0.0
 11
-818.3855039345
 21
-28.61832839133
 31
0.0
1001
ACAD
1000
TCW40_DEV_WIDTH
1002
{
1040
0.011811023578
1002
}
1001
TCAD
1000
TCW_ATTRIBUTE
1002
{
1000
Linie
1002
}
1000
TCW_CUSTOM_DATA
1002
{
1000
#$AUX@_ToolInfo Properties
1070
           8
1000
Ändern^J2Linienzusammenführen@2Linienzusammenführen
1002
}
  0
LINE
  5
BB
100
AcDbEntity
  8
ABDECKUNG
  6
CONTINUOUS
 48
0.20000000298
100
AcDbLine
 10
-818.3855039345
 20
45.38167160867
 30
0.0
 11
-818.3855039345
 21
-28.618328391331
 31
0.0
1001
ACAD
1000
TCW40_DEV_WIDTH
1002
{
1040
0.011811023578
1002
}
1001
TCAD
1000
TCW_ATTRIBUTE
1002
{
1000
Linie
1002
}
1000
TCW_CUSTOM_DATA
1002
{
1000
#$AUX@_ToolInfo Properties
1070
           8
1000
Ändern^J2Linienzusammenführen@2Linienzusammenführen
1002
}
  0
LINE
  5
BC
100
AcDbEntity
  8
ABDECKUNG
  6
CONTINUOUS
 48
0.20000000298
100
AcDbLine
 10
-718.390500119793
 20
45.38167160867
 30
0.0
 11
-718.390500119793
 21
-28.61832839133
 31
0.0
1001
ACAD
1000
TCW40_DEV_WIDTH
1002
{
1040
0.011811023578
1002
}
1001
TCAD
1000
TCW_ATTRIBUTE
1002
{
1000
Linie
1002
}
1000
TCW_CUSTOM_DATA
1002
{
1000
#$AUX@_ToolInfo Properties
1070
           8
1000
Ändern^J2Linienzusammenführen@2Linienzusammenführen
1002
}
  0
LINE
  5
BD
100
AcDbEntity
  8
ABDECKUNG
  6
CONTINUOUS
 48
0.20000000298
100
AcDbLine
 10
-841.8855039345
 20
-21.618328391268
 30
0.0
 11
-818.3855039345
 21
-21.61832839133
 31
0.0
1001
ACAD
1000
TCW40_DEV_WIDTH
1002
{
1040
0.011811023578
1002
}
1001
TCAD
1000
TCW_ATTRIBUTE
1002
{
1000
Linie
1002
}
1000
TCW_CUSTOM_DATA
1002
{
1000
#$AUX@_ToolInfo Properties
1070
           8
1000
Einfügen^JLinie^JEinfach@Linie Einfach
1002
}
  0
LINE
  5
BE
100
AcDbEntity
  8
ABDECKUNG
  6
CONTINUOUS
 48
0.20000000298
100
AcDbLine
 10
-841.8855039345
 20
38.38167160873
 30
0.0
 11
-818.3855039345
 21
38.38167160867
 31
0.0
1001
ACAD
1000
TCW40_DEV_WIDTH
1002
{
1040
0.011811023578
1002
}
1001
TCAD
1000
TCW_ATTRIBUTE
1002
{
1000
Linie
1002
}
1000
TCW_CUSTOM_DATA
1002
{
1000
#$AUX@_ToolInfo Properties
1070
           8
1000
Einfügen^JLinie^JEinfach@Linie Einfach
1002
}
  0
LINE
  5
BF
100
AcDbEntity
  8
F_HRUNG
  6
CONTINUOUS
 48
0.20000000298
100
AcDbLine
 10
-842.8855039345
 20
13.38167160867
 30
0.0
 11
-841.8855039345
 21
13.381671608669
 31
0.0
1001
ACAD
1000
TCW40_DEV_WIDTH
1002
{
1040
0.011811023578
1002
}
1001
TCAD
1000
TCW_ATTRIBUTE
1002
{
1000
Linie
1002
}
  0
LINE
  5
C0
100
AcDbEntity
  8
F_HRUNG
  6
CONTINUOUS
 48
0.20000000298
100
AcDbLine
 10
-842.8855039345
 20
3.38167160867
 30
0.0
 11
-841.8855039345
 21
3.381671608669
 31
0.0
1001
ACAD
1000
TCW40_DEV_WIDTH
1002
{
1040
0.011811023578
1002
}
1001
TCAD
1000
TCW_ATTRIBUTE
1002
{
1000
Linie
1002
}
  0
LINE
  5
C1
100
AcDbEntity
  8
SEITENPLATTEN
  6
CONTINUOUS
 48
0.20000000298
100
AcDbLine
 10
-817.39050393449
 20
45.38167160867
 30
0.0
 11
-817.39050393449
 21
46.38167160867
 31
0.0
1001
ACAD
1000
TCW40_DEV_WIDTH
1002
{
1040
0.011811023578
1002
}
1001
TCAD
1000
TCW_ATTRIBUTE
1002
{
1000
Linie
1002
}
  0
LINE
  5
C2
100
AcDbEntity
  8
SEITENPLATTEN
  6
CONTINUOUS
 48
0.20000000298
100
AcDbLine
 10
-795.218931059237
 20
45.38167160867
 30
0.0
 11
-795.218931059237
 21
46.38167160867
 31
0.0
1001
ACAD
1000
TCW40_DEV_WIDTH
1002
{
1040
0.011811023578
1002
}
1001
TCAD
1000
TCW_ATTRIBUTE
1002
{
1000
Linie
1002
}
  0
LINE
  5
C3
100
AcDbEntity
  8
SEITENPLATTEN
  6
CONTINUOUS
 48
0.20000000298
100
AcDbLine
 10
-741.562076809744
 20
45.38167160867
 30
0.0
 11
-741.562076809744
 21
46.38167160867
 31
0.0
1001
ACAD
1000
TCW40_DEV_WIDTH
1002
{
1040
0.011811023578
1002
}
1001
TCAD
1000
TCW_ATTRIBUTE
1002
{
1000
Linie
1002
}
  0
LINE
  5
C4
100
AcDbEntity
  8
SEITENPLATTEN
  6
CONTINUOUS
 48
0.20000000298
100
AcDbLine
 10
-741.562076809744
 20
-29.61832839133
 30
0.0
 11
-741.562076809744
 21
-28.61832839133
 31
0.0
1001
ACAD
1000
TCW40_DEV_WIDTH
1002
{
1040
0.011811023578
1002
}
1001
TCAD
1000
TCW_ATTRIBUTE
1002
{
1000
Linie
1002
}
  0
LINE
  5
C5
100
AcDbEntity
  8
SEITENPLATTEN
  6
CONTINUOUS
 48
0.20000000298
100
AcDbLine
 10
-795.218931059237
 20
-29.61832839133
 30
0.0
 11
-795.218931059237
 21
-28.61832839133
 31
0.0
1001
ACAD
1000
TCW40_DEV_WIDTH
1002
{
1040
0.011811023578
1002
}
1001
TCAD
1000
TCW_ATTRIBUTE
1002
{
1000
Linie
1002
}
  0
LINE
  5
C6
100
AcDbEntity
  8
SEITENPLATTEN
  6
CONTINUOUS
 48
0.20000000298
100
AcDbLine
 10
-817.39050393449
 20
-29.61832839133
 30
0.0
 11
-817.39050393449
 21
-28.61832839133
 31
0.0
1001
ACAD
1000
TCW40_DEV_WIDTH
1002
{
1040
0.011811023578
1002
}
1001
TCAD
1000
TCW_ATTRIBUTE
1002
{
1000
Linie
1002
}
  0
LINE
  5
C7
100
AcDbEntity
  8
SEITENPLATTEN
  6
CONTINUOUS
 48
0.20000000298
100
AcDbLine
 10
-832.8855039345
 20
-21.61832839133
 30
0.0
 11
-818.3855039345
 21
-21.61832839133
 31
0.0
1001
ACAD
1000
TCW40_DEV_WIDTH
1002
{
1040
0.011811023578
1002
}
1001
TCAD
1000
TCW_ATTRIBUTE
1002
{
1000
Linie
1002
}
  0
LINE
  5
C8
100
AcDbEntity
  8
SEITENPLATTEN
  6
CONTINUOUS
 48
0.20000000298
100
AcDbLine
 10
-832.8855039345
 20
38.38167160867
 30
0.0
 11
-818.3855039345
 21
38.38167160867
 31
0.0
1001
ACAD
1000
TCW40_DEV_WIDTH
1002
{
1040
0.011811023578
1002
}
1001
TCAD
1000
TCW_ATTRIBUTE
1002
{
1000
Linie
1002
}
  0
LINE
  5
C9
100
AcDbEntity
  8
SEITENPLATTEN
  6
CONTINUOUS
 48
0.20000000298
100
AcDbLine
 10
-719.39050393449
 20
45.38167160867
 30
0.0
 11
-719.39050393449
 21
46.38167160867
 31
0.0
1001
ACAD
1000
TCW40_DEV_WIDTH
1002
{
1040
0.011811023578
1002
}
1001
TCAD
1000
TCW_ATTRIBUTE
1002
{
1000
Linie
1002
}
  0
LINE
  5
CA
100
AcDbEntity
  8
SEITENPLATTEN
  6
CONTINUOUS
 48
0.20000000298
100
AcDbLine
 10
-719.39050393449
 20
-28.61832839133
 30
0.0
 11
-719.39050393449
 21
-29.61832839133
 31
0.0
1001
ACAD
1000
TCW40_DEV_WIDTH
1002
{
1040
0.011811023578
1002
}
1001
TCAD
1000
TCW_ATTRIBUTE
1002
{
1000
Linie
1002
}
  0
CIRCLE
  5
CB
102
{ACAD_REACTORS
330
CF
102
}
100
AcDbEntity
  8
NORMTEILE
  6
CONTINUOUS
100
AcDbCircle
 10
-836.385507749197
 20
31.381675423367
 30
0.0
 40
6.5
1001
ACAD
1000
TCW40_DEV_WIDTH
1002
{
1040
0.011811023578
1002
}
1001
TCAD
1000
TCW_ATTRIBUTE
1002
{
1000
Kreis / Bogen
1002
}
  0
LWPOLYLINE
  5
CC
102
{ACAD_REACTORS
330
CF
102
}
100
AcDbEntity
  8
NORMTEILE
  6
CONTINUOUS
 48
0.20000000298
100
AcDbPolyline
 90
        6
 70
           1
 10
-839.885507749197
 20
31.381675423367
 10
-838.135507749197
 20
28.350586510122
 10
-834.635507749197
 20
28.350586510122
 10
-832.885507749197
 20
31.381675423367
 10
-834.635507749197
 20
34.412764336612
 10
-838.135507749197
 20
34.412764336612
1001
ACAD
1000
TCW40_DEV_WIDTH
1002
{
1040
0.011811023578
1002
}
1001
TCAD
1000
TCW_ATTRIBUTE
1002
{
1000
Linie
1002
}
  0
LINE
  5
CD
102
{ACAD_REACTORS
330
CF
102
}
100
AcDbEntity
  8
NORMTEILE
  6
STRICHPUNKT
 48
0.20000000298
100
AcDbLine
 10
-836.385507749197
 20
37.881675423367
 30
0.0
 11
-836.385507749197
 21
24.881675423367
 31
0.0
1001
ACAD
1000
TCW40_DEV_WIDTH
1002
{
1040
0.003937007859
1002
}
1001
TCAD
1000
TCW_ATTRIBUTE
1002
{
1000
Linie
1002
}
  0
LINE
  5
CE
102
{ACAD_REACTORS
330
CF
102
}
100
AcDbEntity
  8
NORMTEILE
  6
STRICHPUNKT
 48
0.20000000298
100
AcDbLine
 10
-829.885507749197
 20
31.381675423367
 30
0.0
 11
-842.885507749197
 21
31.381675423367
 31
0.0
1001
ACAD
1000
TCW40_DEV_WIDTH
1002
{
1040
0.003937007859
1002
}
1001
TCAD
1000
TCW_ATTRIBUTE
1002
{
1000
Linie
1002
}
  0
CIRCLE
  5
D0
102
{ACAD_REACTORS
330
D4
102
}
100
AcDbEntity
  8
NORMTEILE
  6
CONTINUOUS
100
AcDbCircle
 10
-836.385507749198
 20
-14.618324576633
 30
0.0
 40
6.5
1001
ACAD
1000
TCW40_DEV_WIDTH
1002
{
1040
0.011811023578
1002
}
1001
TCAD
1000
TCW_ATTRIBUTE
1002
{
1000
Kreis / Bogen
1002
}
  0
LWPOLYLINE
  5
D1
102
{ACAD_REACTORS
330
D4
102
}
100
AcDbEntity
  8
NORMTEILE
  6
CONTINUOUS
 48
0.20000000298
100
AcDbPolyline
 90
        6
 70
           1
 10
-839.885507749198
 20
-14.618324576633
 10
-838.135507749198
 20
-17.649413489878
 10
-834.635507749198
 20
-17.649413489878
 10
-832.885507749198
 20
-14.618324576633
 10
-834.635507749198
 20
-11.587235663388
 10
-838.135507749198
 20
-11.587235663388
1001
ACAD
1000
TCW40_DEV_WIDTH
1002
{
1040
0.011811023578
1002
}
1001
TCAD
1000
TCW_ATTRIBUTE
1002
{
1000
Linie
1002
}
  0
LINE
  5
D2
102
{ACAD_REACTORS
330
D4
102
}
100
AcDbEntity
  8
NORMTEILE
  6
STRICHPUNKT
 48
0.20000000298
100
AcDbLine
 10
-836.385507749198
 20
-8.118324576633
 30
0.0
 11
-836.385507749198
 21
-21.118324576633
 31
0.0
1001
ACAD
1000
TCW40_DEV_WIDTH
1002
{
1040
0.003937007859
1002
}
1001
TCAD
1000
TCW_ATTRIBUTE
1002
{
1000
Linie
1002
}
  0
LINE
  5
D3
102
{ACAD_REACTORS
330
D4
102
}
100
AcDbEntity
  8
NORMTEILE
  6
STRICHPUNKT
 48
0.20000000298
100
AcDbLine
 10
-829.885507749198
 20
-14.618324576633
 30
0.0
 11
-842.885507749198
 21
-14.618324576633
 31
0.0
1001
ACAD
1000
TCW40_DEV_WIDTH
1002
{
1040
0.003937007859
1002
}
1001
TCAD
1000
TCW_ATTRIBUTE
1002
{
1000
Linie
1002
}
  0
LINE
  5
D5
100
AcDbEntity
  8
ABDECKUNG
  6
CONTINUOUS
 48
0.20000000298
100
AcDbLine
 10
-841.8855039345
 20
38.38167160867
 30
0.0
 11
-841.8855039345
 21
34.845783095143
 31
0.0
1001
ACAD
1000
TCW40_DEV_WIDTH
1002
{
1040
0.011811023578
1002
}
1001
TCAD
1000
TCW_ATTRIBUTE
1002
{
1000
Linie
1002
}
  0
LINE
  5
D6
100
AcDbEntity
  8
ABDECKUNG
  6
CONTINUOUS
 48
0.20000000298
100
AcDbLine
 10
-841.8855039345
 20
27.917567751592
 30
0.0
 11
-841.8855039345
 21
-11.154216904857
 31
0.0
1001
ACAD
1000
TCW40_DEV_WIDTH
1002
{
1040
0.011811023578
1002
}
1001
TCAD
1000
TCW_ATTRIBUTE
1002
{
1000
Linie
1002
}
  0
LINE
  5
D7
100
AcDbEntity
  8
ABDECKUNG
  6
CONTINUOUS
 48
0.20000000298
100
AcDbLine
 10
-841.8855039345
 20
-18.082432248408
 30
0.0
 11
-841.8855039345
 21
-21.618328391268
 31
0.0
1001
ACAD
1000
TCW40_DEV_WIDTH
1002
{
1040
0.011811023578
1002
}
1001
TCAD
1000
TCW_ATTRIBUTE
1002
{
1000
Linie
1002
}
  0
LINE
  5
D8
100
AcDbEntity
  8
ABDECKUNG
  6
CONTINUOUS
 48
0.20000000298
100
AcDbLine
 10
-741.147863247371
 20
45.38167160867
 30
0.0
 11
-741.147863247371
 21
-28.61832839133
 31
0.0
1001
ACAD
1000
TCW40_DEV_WIDTH
1002
{
1040
0.011811023578
1002
}
1001
TCAD
1000
TCW_ATTRIBUTE
1002
{
1000
Linie
1002
}
1000
TCW_CUSTOM_DATA
1002
{
1000
#$AUX@_ToolInfo Properties
1070
           8
1000
Einfügen^JLinie^JEinfach@Linie Einfach
1002
}
  0
LINE
  5
D9
100
AcDbEntity
  8
ABDECKUNG
  6
CONTINUOUS
 48
0.20000000298
100
AcDbLine
 10
-795.63314462161
 20
45.38167160867
 30
0.0
 11
-795.63314462161
 21
-28.61832839133
 31
0.0
1001
ACAD
1000
TCW40_DEV_WIDTH
1002
{
1040
0.011811023578
1002
}
1001
TCAD
1000
TCW_ATTRIBUTE
1002
{
1000
Linie
1002
}
1000
TCW_CUSTOM_DATA
1002
{
1000
#$AUX@_ToolInfo Properties
1070
           8
1000
Einfügen^JLinie^JEinfach@Linie Einfach
1002
}
  0
LINE
  5
DA
100
AcDbEntity
  8
SEITENPLATTEN
  6
CONTINUOUS
 48
0.20000000298
100
AcDbLine
 10
-759.390500119793
 20
182.48167160867
 30
0.0
 11
-758.390500119793
 21
181.48167160867
 31
0.0
1001
ACAD
1000
TCW40_DEV_WIDTH
1002
{
1040
0.011811023578
1002
}
1001
TCAD
1000
TCW_ATTRIBUTE
1002
{
1000
Linie
1002
}
  0
LINE
  5
DB
100
AcDbEntity
  8
SEITENPLATTEN
  6
CONTINUOUS
 48
0.20000000298
100
AcDbLine
 10
-759.390500119793
 20
182.48167160867
 30
0.0
 11
-777.390500119793
 21
182.48167160867
 31
0.0
1001
ACAD
1000
TCW40_DEV_WIDTH
1002
{
1040
0.011811023578
1002
}
1001
TCAD
1000
TCW_ATTRIBUTE
1002
{
1000
Linie
1002
}
  0
LINE
  5
DC
100
AcDbEntity
  8
SEITENPLATTEN
  6
CONTINUOUS
 48
0.20000000298
100
AcDbLine
 10
-778.390500119793
 20
181.48167160867
 30
0.0
 11
-777.390500119793
 21
182.48167160867
 31
0.0
1001
ACAD
1000
TCW40_DEV_WIDTH
1002
{
1040
0.011811023578
1002
}
1001
TCAD
1000
TCW_ATTRIBUTE
1002
{
1000
Linie
1002
}
  0
LINE
  5
DD
100
AcDbEntity
  8
SEITENPLATTEN
  6
CONTINUOUS
 48
0.20000000298
100
AcDbLine
 10
-778.390500119793
 20
166.68167160867
 30
0.0
 11
-778.390500119793
 21
181.48167160867
 31
0.0
1001
ACAD
1000
TCW40_DEV_WIDTH
1002
{
1040
0.011811023578
1002
}
1001
TCAD
1000
TCW_ATTRIBUTE
1002
{
1000
Linie
1002
}
  0
LINE
  5
DE
100
AcDbEntity
  8
SEITENPLATTEN
  6
CONTINUOUS
 48
0.20000000298
100
AcDbLine
 10
-758.390500119793
 20
166.68167160867
 30
0.0
 11
-758.390500119793
 21
181.48167160867
 31
0.0
1001
ACAD
1000
TCW40_DEV_WIDTH
1002
{
1040
0.011811023578
1002
}
1001
TCAD
1000
TCW_ATTRIBUTE
1002
{
1000
Linie
1002
}
  0
LINE
  5
DF
100
AcDbEntity
  8
SEITENPLATTEN
  6
CONTINUOUS
 48
0.20000000298
100
AcDbLine
 10
-778.390500119793
 20
181.48167160867
 30
0.0
 11
-758.390500119793
 21
181.48167160867
 31
0.0
1001
ACAD
1000
TCW40_DEV_WIDTH
1002
{
1040
0.011811023578
1002
}
1001
TCAD
1000
TCW_ATTRIBUTE
1002
{
1000
Linie
1002
}
  0
LINE
  5
E0
102
{ACAD_REACTORS
330
142
102
}
100
AcDbEntity
  8
KAUFTEIL
  6
STRICHPUNKT
 48
0.20000000298
100
AcDbLine
 10
-768.390500119793
 20
69.18167160867
 30
0.0
 11
-768.390500119793
 21
164.18167160867
 31
0.0
1001
ACAD
1000
TCW40_DEV_WIDTH
1002
{
1040
0.003937007859
1002
}
  0
LINE
  5
E1
102
{ACAD_REACTORS
330
142
102
}
100
AcDbEntity
  8
KAUFTEIL
  6
STRICHPUNKT
 48
0.20000000298
100
AcDbLine
 10
-835.390500119793
 20
116.68167160867
 30
0.0
 11
-718.390500119793
 21
116.68167160867
 31
0.0
1001
ACAD
1000
TCW40_DEV_WIDTH
1002
{
1040
0.003937007859
1002
}
  0
LINE
  5
E2
102
{ACAD_REACTORS
330
142
102
}
100
AcDbEntity
  8
KAUFTEIL
  6
CONTINUOUS
 48
0.20000000298
100
AcDbLine
 10
-725.890500119793
 20
164.18167160867
 30
0.0
 11
-810.890500119793
 21
164.18167160867
 31
0.0
1001
ACAD
1000
TCW40_DEV_WIDTH
1002
{
1040
0.011811023578
1002
}
  0
LINE
  5
E3
102
{ACAD_REACTORS
330
142
102
}
100
AcDbEntity
  8
KAUFTEIL
  6
CONTINUOUS
 48
0.20000000298
100
AcDbLine
 10
-800.526928119793
 20
151.40936160867
 30
0.0
 11
-800.526928119793
 21
164.18167160867
 31
0.0
1001
ACAD
1000
TCW40_DEV_WIDTH
1002
{
1040
0.011811023578
1002
}
  0
LINE
  5
E4
102
{ACAD_REACTORS
330
142
102
}
100
AcDbEntity
  8
KAUFTEIL
  6
CONTINUOUS
 48
0.20000000298
100
AcDbLine
 10
-775.890500119793
 20
161.68167160867
 30
0.0
 11
-775.890500119793
 21
164.18167160867
 31
0.0
1001
ACAD
1000
TCW40_DEV_WIDTH
1002
{
1040
0.011811023578
1002
}
  0
LINE
  5
E5
102
{ACAD_REACTORS
330
142
102
}
100
AcDbEntity
  8
KAUFTEIL
  6
CONTINUOUS
 48
0.20000000298
100
AcDbLine
 10
-760.890500119793
 20
161.68167160867
 30
0.0
 11
-760.890500119793
 21
164.18167160867
 31
0.0
1001
ACAD
1000
TCW40_DEV_WIDTH
1002
{
1040
0.011811023578
1002
}
  0
LINE
  5
E6
102
{ACAD_REACTORS
330
142
102
}
100
AcDbEntity
  8
KAUFTEIL
  6
CONTINUOUS
 48
0.20000000298
100
AcDbLine
 10
-736.254072119793
 20
151.40936160867
 30
0.0
 11
-736.254072119793
 21
164.18167160867
 31
0.0
1001
ACAD
1000
TCW40_DEV_WIDTH
1002
{
1040
0.011811023578
1002
}
  0
LINE
  5
E7
102
{ACAD_REACTORS
330
142
102
}
100
AcDbEntity
  8
KAUFTEIL
  6
CONTINUOUS
 48
0.20000000298
100
AcDbLine
 10
-725.890500119793
 20
161.68167160867
 30
0.0
 11
-725.890500119793
 21
164.18167160867
 31
0.0
1001
ACAD
1000
TCW40_DEV_WIDTH
1002
{
1040
0.011811023578
1002
}
  0
LINE
  5
E8
102
{ACAD_REACTORS
330
142
102
}
100
AcDbEntity
  8
KAUFTEIL
  6
CONTINUOUS
 48
0.20000000298
100
AcDbLine
 10
-816.390500119793
 20
139.68167160867
 30
0.0
 11
-816.390500119793
 21
161.68167160867
 31
0.0
1001
ACAD
1000
TCW40_DEV_WIDTH
1002
{
1040
0.011811023578
1002
}
  0
LINE
  5
E9
102
{ACAD_REACTORS
330
142
102
}
100
AcDbEntity
  8
KAUFTEIL
  6
CONTINUOUS
 48
0.20000000298
100
AcDbLine
 10
-814.390500119793
 20
139.68167160867
 30
0.0
 11
-814.390500119793
 21
161.68167160867
 31
0.0
1001
ACAD
1000
TCW40_DEV_WIDTH
1002
{
1040
0.011811023578
1002
}
  0
LINE
  5
EA
102
{ACAD_REACTORS
330
142
102
}
100
AcDbEntity
  8
KAUFTEIL
  6
CONTINUOUS
 48
0.20000000298
100
AcDbLine
 10
-810.390500119793
 20
139.68167160867
 30
0.0
 11
-810.390500119793
 21
161.68167160867
 31
0.0
1001
ACAD
1000
TCW40_DEV_WIDTH
1002
{
1040
0.011811023578
1002
}
  0
LINE
  5
EB
102
{ACAD_REACTORS
330
142
102
}
100
AcDbEntity
  8
KAUFTEIL
  6
CONTINUOUS
 48
0.20000000298
100
AcDbLine
 10
-808.390500119793
 20
139.68167160867
 30
0.0
 11
-808.390500119793
 21
161.68167160867
 31
0.0
1001
ACAD
1000
TCW40_DEV_WIDTH
1002
{
1040
0.011811023578
1002
}
  0
LINE
  5
EC
102
{ACAD_REACTORS
330
142
102
}
100
AcDbEntity
  8
KAUFTEIL
  6
CONTINUOUS
 48
0.20000000298
100
AcDbLine
 10
-788.390500119793
 20
139.68167160867
 30
0.0
 11
-788.390500119793
 21
161.68167160867
 31
0.0
1001
ACAD
1000
TCW40_DEV_WIDTH
1002
{
1040
0.011811023578
1002
}
  0
LINE
  5
ED
102
{ACAD_REACTORS
330
142
102
}
100
AcDbEntity
  8
KAUFTEIL
  6
CONTINUOUS
 48
0.20000000298
100
AcDbLine
 10
-786.390500119793
 20
139.68167160867
 30
0.0
 11
-786.390500119793
 21
161.68167160867
 31
0.0
1001
ACAD
1000
TCW40_DEV_WIDTH
1002
{
1040
0.011811023578
1002
}
  0
LINE
  5
EE
102
{ACAD_REACTORS
330
142
102
}
100
AcDbEntity
  8
KAUFTEIL
  6
CONTINUOUS
 48
0.20000000298
100
AcDbLine
 10
-748.390500119793
 20
139.68167160867
 30
0.0
 11
-748.390500119793
 21
161.68167160867
 31
0.0
1001
ACAD
1000
TCW40_DEV_WIDTH
1002
{
1040
0.011811023578
1002
}
  0
LINE
  5
EF
102
{ACAD_REACTORS
330
142
102
}
100
AcDbEntity
  8
KAUFTEIL
  6
CONTINUOUS
 48
0.20000000298
100
AcDbLine
 10
-728.390500119793
 20
139.68167160867
 30
0.0
 11
-728.390500119793
 21
161.68167160867
 31
0.0
1001
ACAD
1000
TCW40_DEV_WIDTH
1002
{
1040
0.011811023578
1002
}
  0
LINE
  5
F0
102
{ACAD_REACTORS
330
142
102
}
100
AcDbEntity
  8
KAUFTEIL
  6
CONTINUOUS
 48
0.20000000298
100
AcDbLine
 10
-726.390500119793
 20
139.68167160867
 30
0.0
 11
-726.390500119793
 21
161.68167160867
 31
0.0
1001
ACAD
1000
TCW40_DEV_WIDTH
1002
{
1040
0.011811023578
1002
}
  0
LINE
  5
F1
102
{ACAD_REACTORS
330
142
102
}
100
AcDbEntity
  8
KAUFTEIL
  6
CONTINUOUS
 48
0.20000000298
100
AcDbLine
 10
-722.390500119793
 20
71.68167160867
 30
0.0
 11
-722.390500119793
 21
161.68167160867
 31
0.0
1001
ACAD
1000
TCW40_DEV_WIDTH
1002
{
1040
0.011811023578
1002
}
  0
LINE
  5
F2
102
{ACAD_REACTORS
330
142
102
}
100
AcDbEntity
  8
KAUFTEIL
  6
CONTINUOUS
 48
0.20000000298
100
AcDbLine
 10
-720.390500119793
 20
71.68167160867
 30
0.0
 11
-720.390500119793
 21
161.68167160867
 31
0.0
1001
ACAD
1000
TCW40_DEV_WIDTH
1002
{
1040
0.011811023578
1002
}
  0
LINE
  5
F3
102
{ACAD_REACTORS
330
142
102
}
100
AcDbEntity
  8
KAUFTEIL
  6
CONTINUOUS
 48
0.20000000298
100
AcDbLine
 10
-734.890500119793
 20
161.68167160867
 30
0.0
 11
-718.390500119793
 21
161.68167160867
 31
0.0
1001
ACAD
1000
TCW40_DEV_WIDTH
1002
{
1040
0.011811023578
1002
}
  0
LINE
  5
F4
102
{ACAD_REACTORS
330
142
102
}
100
AcDbEntity
  8
KAUFTEIL
  6
CONTINUOUS
 48
0.20000000298
100
AcDbLine
 10
-822.890500119793
 20
149.68167160867
 30
0.0
 11
-822.890500119793
 21
161.68167160867
 31
0.0
1001
ACAD
1000
TCW40_DEV_WIDTH
1002
{
1040
0.011811023578
1002
}
  0
LINE
  5
F5
102
{ACAD_REACTORS
330
142
102
}
100
AcDbEntity
  8
KAUFTEIL
  6
CONTINUOUS
 48
0.20000000298
100
AcDbLine
 10
-810.890500119793
 20
164.18167160867
 30
0.0
 11
-810.890500119793
 21
161.68167160867
 31
0.0
1001
ACAD
1000
TCW40_DEV_WIDTH
1002
{
1040
0.011811023578
1002
}
  0
LINE
  5
F6
102
{ACAD_REACTORS
330
142
102
}
100
AcDbEntity
  8
KAUFTEIL
  6
CONTINUOUS
 48
0.20000000298
100
AcDbLine
 10
-835.390500119793
 20
161.68167160867
 30
0.0
 11
-801.890500119793
 21
161.68167160867
 31
0.0
1001
ACAD
1000
TCW40_DEV_WIDTH
1002
{
1040
0.011811023578
1002
}
  0
LINE
  5
F7
102
{ACAD_REACTORS
330
142
102
}
100
AcDbEntity
  8
KAUFTEIL
  6
CONTINUOUS
 48
0.20000000298
100
AcDbLine
 10
-801.890500119793
 20
161.68167160867
 30
0.0
 11
-801.890500119793
 21
154.18167160867
 31
0.0
1001
ACAD
1000
TCW40_DEV_WIDTH
1002
{
1040
0.011811023578
1002
}
  0
ARC
  5
F8
102
{ACAD_REACTORS
330
142
102
}
100
AcDbEntity
  8
KAUFTEIL
  6
CONTINUOUS
 48
0.20000000298
100
AcDbCircle
 10
-798.390500119793
 20
154.18167160867
 30
0.0
 40
3.5
100
AcDbArc
 50
180.0
 51
359.999997999995
1001
ACAD
1000
TCW40_DEV_WIDTH
1002
{
1040
0.011811023578
1002
}
  0
LINE
  5
F9
102
{ACAD_REACTORS
330
142
102
}
100
AcDbEntity
  8
KAUFTEIL
  6
CONTINUOUS
 48
0.20000000298
100
AcDbLine
 10
-794.890500119793
 20
154.18167160867
 30
0.0
 11
-794.890500119793
 21
161.68167160867
 31
0.0
1001
ACAD
1000
TCW40_DEV_WIDTH
1002
{
1040
0.011811023578
1002
}
  0
LINE
  5
FA
102
{ACAD_REACTORS
330
142
102
}
100
AcDbEntity
  8
KAUFTEIL
  6
CONTINUOUS
 48
0.20000000298
100
AcDbLine
 10
-794.890500119793
 20
161.68167160867
 30
0.0
 11
-741.890500119793
 21
161.68167160867
 31
0.0
1001
ACAD
1000
TCW40_DEV_WIDTH
1002
{
1040
0.011811023578
1002
}
  0
LINE
  5
FB
102
{ACAD_REACTORS
330
142
102
}
100
AcDbEntity
  8
KAUFTEIL
  6
CONTINUOUS
 48
0.20000000298
100
AcDbLine
 10
-741.890500119793
 20
161.68167160867
 30
0.0
 11
-741.890500119793
 21
154.18167160867
 31
0.0
1001
ACAD
1000
TCW40_DEV_WIDTH
1002
{
1040
0.011811023578
1002
}
  0
ARC
  5
FC
102
{ACAD_REACTORS
330
142
102
}
100
AcDbEntity
  8
KAUFTEIL
  6
CONTINUOUS
 48
0.20000000298
100
AcDbCircle
 10
-738.390500119793
 20
154.18167160867
 30
0.0
 40
3.5
100
AcDbArc
 50
180.0
 51
359.999997999995
1001
ACAD
1000
TCW40_DEV_WIDTH
1002
{
1040
0.011811023578
1002
}
  0
LINE
  5
FD
102
{ACAD_REACTORS
330
142
102
}
100
AcDbEntity
  8
KAUFTEIL
  6
CONTINUOUS
 48
0.20000000298
100
AcDbLine
 10
-734.890500119793
 20
154.18167160867
 30
0.0
 11
-734.890500119793
 21
161.68167160867
 31
0.0
1001
ACAD
1000
TCW40_DEV_WIDTH
1002
{
1040
0.011811023578
1002
}
  0
LINE
  5
FE
102
{ACAD_REACTORS
330
142
102
}
100
AcDbEntity
  8
KAUFTEIL
  6
CONTINUOUS
 48
0.20000000298
100
AcDbLine
 10
-834.236500119793
 20
161.68167160867
 30
0.0
 11
-834.236500119793
 21
149.68167160867
 31
0.0
1001
ACAD
1000
TCW40_DEV_WIDTH
1002
{
1040
0.011811023578
1002
}
  0
LINE
  5
FF
102
{ACAD_REACTORS
330
142
102
}
100
AcDbEntity
  8
KAUFTEIL
  6
CONTINUOUS
 48
0.20000000298
100
AcDbLine
 10
-834.236500119793
 20
149.68167160867
 30
0.0
 11
-822.890500119793
 21
149.68167160867
 31
0.0
1001
ACAD
1000
TCW40_DEV_WIDTH
1002
{
1040
0.011811023578
1002
}
  0
LINE
  5
100
102
{ACAD_REACTORS
330
142
102
}
100
AcDbEntity
  8
KAUFTEIL
  6
CONTINUOUS
 48
0.20000000298
100
AcDbLine
 10
-834.236500119793
 20
139.68167160867
 30
0.0
 11
-786.390500119793
 21
139.68167160867
 31
0.0
1001
ACAD
1000
TCW40_DEV_WIDTH
1002
{
1040
0.011811023578
1002
}
  0
LINE
  5
101
102
{ACAD_REACTORS
330
142
102
}
100
AcDbEntity
  8
KAUFTEIL
  6
CONTINUOUS
 48
0.20000000298
100
AcDbLine
 10
-750.390500119793
 20
161.68167160867
 30
0.0
 11
-750.390500119793
 21
139.68167160867
 31
0.0
1001
ACAD
1000
TCW40_DEV_WIDTH
1002
{
1040
0.011811023578
1002
}
  0
LINE
  5
102
102
{ACAD_REACTORS
330
142
102
}
100
AcDbEntity
  8
KAUFTEIL
  6
CONTINUOUS
 48
0.20000000298
100
AcDbLine
 10
-750.390500119793
 20
139.68167160867
 30
0.0
 11
-726.390500119793
 21
139.68167160867
 31
0.0
1001
ACAD
1000
TCW40_DEV_WIDTH
1002
{
1040
0.011811023578
1002
}
  0
LINE
  5
103
102
{ACAD_REACTORS
330
142
102
}
100
AcDbEntity
  8
KAUFTEIL
  6
CONTINUOUS
 48
0.20000000298
100
AcDbLine
 10
-718.390500119793
 20
139.68167160867
 30
0.0
 11
-720.390500119793
 21
139.68167160867
 31
0.0
1001
ACAD
1000
TCW40_DEV_WIDTH
1002
{
1040
0.011811023578
1002
}
  0
LINE
  5
104
102
{ACAD_REACTORS
330
142
102
}
100
AcDbEntity
  8
KAUFTEIL
  6
CONTINUOUS
 48
0.20000000298
100
AcDbLine
 10
-718.390500119793
 20
161.68167160867
 30
0.0
 11
-718.390500119793
 21
139.68167160867
 31
0.0
1001
ACAD
1000
TCW40_DEV_WIDTH
1002
{
1040
0.011811023578
1002
}
  0
LINE
  5
105
102
{ACAD_REACTORS
330
142
102
}
100
AcDbEntity
  8
KAUFTEIL
  6
CONTINUOUS
 48
0.20000000298
100
AcDbLine
 10
-834.236500119793
 20
93.68167160867
 30
0.0
 11
-834.236500119793
 21
139.68167160867
 31
0.0
1001
ACAD
1000
TCW40_DEV_WIDTH
1002
{
1040
0.011811023578
1002
}
  0
LINE
  5
106
102
{ACAD_REACTORS
330
142
102
}
100
AcDbEntity
  8
KAUFTEIL
  6
CONTINUOUS
 48
0.20000000298
100
AcDbLine
 10
-805.390500119793
 20
93.68167160867
 30
0.0
 11
-805.390500119793
 21
139.68167160867
 31
0.0
1001
ACAD
1000
TCW40_DEV_WIDTH
1002
{
1040
0.011811023578
1002
}
  0
LINE
  5
107
102
{ACAD_REACTORS
330
142
102
}
100
AcDbEntity
  8
KAUFTEIL
  6
CONTINUOUS
 48
0.20000000298
100
AcDbLine
 10
-725.890500119793
 20
69.18167160867
 30
0.0
 11
-810.890500119793
 21
69.18167160867
 31
0.0
1001
ACAD
1000
TCW40_DEV_WIDTH
1002
{
1040
0.011811023578
1002
}
  0
LINE
  5
108
102
{ACAD_REACTORS
330
142
102
}
100
AcDbEntity
  8
KAUFTEIL
  6
CONTINUOUS
 48
0.20000000298
100
AcDbLine
 10
-800.526928119793
 20
81.95398160867
 30
0.0
 11
-800.526928119793
 21
69.18167160867
 31
0.0
1001
ACAD
1000
TCW40_DEV_WIDTH
1002
{
1040
0.011811023578
1002
}
  0
LINE
  5
109
102
{ACAD_REACTORS
330
142
102
}
100
AcDbEntity
  8
KAUFTEIL
  6
CONTINUOUS
 48
0.20000000298
100
AcDbLine
 10
-775.890500119793
 20
71.68167160867
 30
0.0
 11
-775.890500119793
 21
69.18167160867
 31
0.0
1001
ACAD
1000
TCW40_DEV_WIDTH
1002
{
1040
0.011811023578
1002
}
  0
LINE
  5
10A
102
{ACAD_REACTORS
330
142
102
}
100
AcDbEntity
  8
KAUFTEIL
  6
CONTINUOUS
 48
0.20000000298
100
AcDbLine
 10
-760.890500119793
 20
71.68167160867
 30
0.0
 11
-760.890500119793
 21
69.18167160867
 31
0.0
1001
ACAD
1000
TCW40_DEV_WIDTH
1002
{
1040
0.011811023578
1002
}
  0
LINE
  5
10B
102
{ACAD_REACTORS
330
142
102
}
100
AcDbEntity
  8
KAUFTEIL
  6
CONTINUOUS
 48
0.20000000298
100
AcDbLine
 10
-736.254072119793
 20
81.95398160867
 30
0.0
 11
-736.254072119793
 21
69.18167160867
 31
0.0
1001
ACAD
1000
TCW40_DEV_WIDTH
1002
{
1040
0.011811023578
1002
}
  0
LINE
  5
10C
102
{ACAD_REACTORS
330
142
102
}
100
AcDbEntity
  8
KAUFTEIL
  6
CONTINUOUS
 48
0.20000000298
100
AcDbLine
 10
-725.890500119793
 20
71.68167160867
 30
0.0
 11
-725.890500119793
 21
69.18167160867
 31
0.0
1001
ACAD
1000
TCW40_DEV_WIDTH
1002
{
1040
0.011811023578
1002
}
  0
LINE
  5
10D
102
{ACAD_REACTORS
330
142
102
}
100
AcDbEntity
  8
KAUFTEIL
  6
CONTINUOUS
 48
0.20000000298
100
AcDbLine
 10
-816.390500119793
 20
93.68167160867
 30
0.0
 11
-816.390500119793
 21
71.68167160867
 31
0.0
1001
ACAD
1000
TCW40_DEV_WIDTH
1002
{
1040
0.011811023578
1002
}
  0
LINE
  5
10E
102
{ACAD_REACTORS
330
142
102
}
100
AcDbEntity
  8
KAUFTEIL
  6
CONTINUOUS
 48
0.20000000298
100
AcDbLine
 10
-814.390500119793
 20
93.68167160867
 30
0.0
 11
-814.390500119793
 21
71.68167160867
 31
0.0
1001
ACAD
1000
TCW40_DEV_WIDTH
1002
{
1040
0.011811023578
1002
}
  0
LINE
  5
10F
102
{ACAD_REACTORS
330
142
102
}
100
AcDbEntity
  8
KAUFTEIL
  6
CONTINUOUS
 48
0.20000000298
100
AcDbLine
 10
-810.390500119793
 20
93.68167160867
 30
0.0
 11
-810.390500119793
 21
71.68167160867
 31
0.0
1001
ACAD
1000
TCW40_DEV_WIDTH
1002
{
1040
0.011811023578
1002
}
  0
LINE
  5
110
102
{ACAD_REACTORS
330
142
102
}
100
AcDbEntity
  8
KAUFTEIL
  6
CONTINUOUS
 48
0.20000000298
100
AcDbLine
 10
-808.390500119793
 20
93.68167160867
 30
0.0
 11
-808.390500119793
 21
71.68167160867
 31
0.0
1001
ACAD
1000
TCW40_DEV_WIDTH
1002
{
1040
0.011811023578
1002
}
  0
LINE
  5
111
102
{ACAD_REACTORS
330
142
102
}
100
AcDbEntity
  8
KAUFTEIL
  6
CONTINUOUS
 48
0.20000000298
100
AcDbLine
 10
-788.390500119793
 20
93.68167160867
 30
0.0
 11
-788.390500119793
 21
71.68167160867
 31
0.0
1001
ACAD
1000
TCW40_DEV_WIDTH
1002
{
1040
0.011811023578
1002
}
  0
LINE
  5
112
102
{ACAD_REACTORS
330
142
102
}
100
AcDbEntity
  8
KAUFTEIL
  6
CONTINUOUS
 48
0.20000000298
100
AcDbLine
 10
-786.390500119793
 20
93.68167160867
 30
0.0
 11
-786.390500119793
 21
71.68167160867
 31
0.0
1001
ACAD
1000
TCW40_DEV_WIDTH
1002
{
1040
0.011811023578
1002
}
  0
LINE
  5
113
102
{ACAD_REACTORS
330
142
102
}
100
AcDbEntity
  8
KAUFTEIL
  6
CONTINUOUS
 48
0.20000000298
100
AcDbLine
 10
-748.390500119793
 20
93.68167160867
 30
0.0
 11
-748.390500119793
 21
71.68167160867
 31
0.0
1001
ACAD
1000
TCW40_DEV_WIDTH
1002
{
1040
0.011811023578
1002
}
  0
LINE
  5
114
102
{ACAD_REACTORS
330
142
102
}
100
AcDbEntity
  8
KAUFTEIL
  6
CONTINUOUS
 48
0.20000000298
100
AcDbLine
 10
-728.390500119793
 20
93.68167160867
 30
0.0
 11
-728.390500119793
 21
71.68167160867
 31
0.0
1001
ACAD
1000
TCW40_DEV_WIDTH
1002
{
1040
0.011811023578
1002
}
  0
LINE
  5
115
102
{ACAD_REACTORS
330
142
102
}
100
AcDbEntity
  8
KAUFTEIL
  6
CONTINUOUS
 48
0.20000000298
100
AcDbLine
 10
-726.390500119793
 20
93.68167160867
 30
0.0
 11
-726.390500119793
 21
71.68167160867
 31
0.0
1001
ACAD
1000
TCW40_DEV_WIDTH
1002
{
1040
0.011811023578
1002
}
  0
LINE
  5
116
102
{ACAD_REACTORS
330
142
102
}
100
AcDbEntity
  8
KAUFTEIL
  6
CONTINUOUS
 48
0.20000000298
100
AcDbLine
 10
-734.890500119793
 20
71.68167160867
 30
0.0
 11
-718.390500119793
 21
71.68167160867
 31
0.0
1001
ACAD
1000
TCW40_DEV_WIDTH
1002
{
1040
0.011811023578
1002
}
  0
LINE
  5
117
102
{ACAD_REACTORS
330
142
102
}
100
AcDbEntity
  8
KAUFTEIL
  6
CONTINUOUS
 48
0.20000000298
100
AcDbLine
 10
-835.390500119793
 20
161.68167160867
 30
0.0
 11
-835.390500119793
 21
71.68167160867
 31
0.0
1001
ACAD
1000
TCW40_DEV_WIDTH
1002
{
1040
0.011811023578
1002
}
  0
LINE
  5
118
102
{ACAD_REACTORS
330
142
102
}
100
AcDbEntity
  8
KAUFTEIL
  6
CONTINUOUS
 48
0.20000000298
100
AcDbLine
 10
-822.890500119793
 20
83.68167160867
 30
0.0
 11
-822.890500119793
 21
71.68167160867
 31
0.0
1001
ACAD
1000
TCW40_DEV_WIDTH
1002
{
1040
0.011811023578
1002
}
  0
LINE
  5
119
102
{ACAD_REACTORS
330
142
102
}
100
AcDbEntity
  8
KAUFTEIL
  6
CONTINUOUS
 48
0.20000000298
100
AcDbLine
 10
-810.890500119793
 20
69.18167160867
 30
0.0
 11
-810.890500119793
 21
71.68167160867
 31
0.0
1001
ACAD
1000
TCW40_DEV_WIDTH
1002
{
1040
0.011811023578
1002
}
  0
LINE
  5
11A
102
{ACAD_REACTORS
330
142
102
}
100
AcDbEntity
  8
KAUFTEIL
  6
CONTINUOUS
 48
0.20000000298
100
AcDbLine
 10
-835.390500119793
 20
71.68167160867
 30
0.0
 11
-801.890500119793
 21
71.68167160867
 31
0.0
1001
ACAD
1000
TCW40_DEV_WIDTH
1002
{
1040
0.011811023578
1002
}
  0
LINE
  5
11B
102
{ACAD_REACTORS
330
142
102
}
100
AcDbEntity
  8
KAUFTEIL
  6
CONTINUOUS
 48
0.20000000298
100
AcDbLine
 10
-801.890500119793
 20
71.68167160867
 30
0.0
 11
-801.890500119793
 21
79.18167160867
 31
0.0
1001
ACAD
1000
TCW40_DEV_WIDTH
1002
{
1040
0.011811023578
1002
}
  0
ARC
  5
11C
102
{ACAD_REACTORS
330
142
102
}
100
AcDbEntity
  8
KAUFTEIL
  6
CONTINUOUS
 48
0.20000000298
100
AcDbCircle
 10
-798.390500119793
 20
79.18167160867
 30
0.0
 40
3.5
100
AcDbArc
 50
0.0
 51
180.000002000005
1001
ACAD
1000
TCW40_DEV_WIDTH
1002
{
1040
0.011811023578
1002
}
  0
LINE
  5
11D
102
{ACAD_REACTORS
330
142
102
}
100
AcDbEntity
  8
KAUFTEIL
  6
CONTINUOUS
 48
0.20000000298
100
AcDbLine
 10
-794.890500119793
 20
79.18167160867
 30
0.0
 11
-794.890500119793
 21
71.68167160867
 31
0.0
1001
ACAD
1000
TCW40_DEV_WIDTH
1002
{
1040
0.011811023578
1002
}
  0
LINE
  5
11E
102
{ACAD_REACTORS
330
142
102
}
100
AcDbEntity
  8
KAUFTEIL
  6
CONTINUOUS
 48
0.20000000298
100
AcDbLine
 10
-794.890500119793
 20
71.68167160867
 30
0.0
 11
-741.890500119793
 21
71.68167160867
 31
0.0
1001
ACAD
1000
TCW40_DEV_WIDTH
1002
{
1040
0.011811023578
1002
}
  0
LINE
  5
11F
102
{ACAD_REACTORS
330
142
102
}
100
AcDbEntity
  8
KAUFTEIL
  6
CONTINUOUS
 48
0.20000000298
100
AcDbLine
 10
-741.890500119793
 20
71.68167160867
 30
0.0
 11
-741.890500119793
 21
79.18167160867
 31
0.0
1001
ACAD
1000
TCW40_DEV_WIDTH
1002
{
1040
0.011811023578
1002
}
  0
ARC
  5
120
102
{ACAD_REACTORS
330
142
102
}
100
AcDbEntity
  8
KAUFTEIL
  6
CONTINUOUS
 48
0.20000000298
100
AcDbCircle
 10
-738.390500119793
 20
79.18167160867
 30
0.0
 40
3.5
100
AcDbArc
 50
0.0
 51
180.000002000005
1001
ACAD
1000
TCW40_DEV_WIDTH
1002
{
1040
0.011811023578
1002
}
  0
LINE
  5
121
102
{ACAD_REACTORS
330
142
102
}
100
AcDbEntity
  8
KAUFTEIL
  6
CONTINUOUS
 48
0.20000000298
100
AcDbLine
 10
-734.890500119793
 20
79.18167160867
 30
0.0
 11
-734.890500119793
 21
71.68167160867
 31
0.0
1001
ACAD
1000
TCW40_DEV_WIDTH
1002
{
1040
0.011811023578
1002
}
  0
LINE
  5
122
102
{ACAD_REACTORS
330
142
102
}
100
AcDbEntity
  8
KAUFTEIL
  6
CONTINUOUS
 48
0.20000000298
100
AcDbLine
 10
-834.236500119793
 20
71.68167160867
 30
0.0
 11
-834.236500119793
 21
83.68167160867
 31
0.0
1001
ACAD
1000
TCW40_DEV_WIDTH
1002
{
1040
0.011811023578
1002
}
  0
LINE
  5
123
102
{ACAD_REACTORS
330
142
102
}
100
AcDbEntity
  8
KAUFTEIL
  6
CONTINUOUS
 48
0.20000000298
100
AcDbLine
 10
-834.236500119793
 20
83.68167160867
 30
0.0
 11
-822.890500119793
 21
83.68167160867
 31
0.0
1001
ACAD
1000
TCW40_DEV_WIDTH
1002
{
1040
0.011811023578
1002
}
  0
LINE
  5
124
102
{ACAD_REACTORS
330
142
102
}
100
AcDbEntity
  8
KAUFTEIL
  6
CONTINUOUS
 48
0.20000000298
100
AcDbLine
 10
-834.236500119793
 20
93.68167160867
 30
0.0
 11
-786.390500119793
 21
93.68167160867
 31
0.0
1001
ACAD
1000
TCW40_DEV_WIDTH
1002
{
1040
0.011811023578
1002
}
  0
LINE
  5
125
102
{ACAD_REACTORS
330
142
102
}
100
AcDbEntity
  8
KAUFTEIL
  6
CONTINUOUS
 48
0.20000000298
100
AcDbLine
 10
-750.390500119793
 20
71.68167160867
 30
0.0
 11
-750.390500119793
 21
93.68167160867
 31
0.0
1001
ACAD
1000
TCW40_DEV_WIDTH
1002
{
1040
0.011811023578
1002
}
  0
LINE
  5
126
102
{ACAD_REACTORS
330
142
102
}
100
AcDbEntity
  8
KAUFTEIL
  6
CONTINUOUS
 48
0.20000000298
100
AcDbLine
 10
-750.390500119793
 20
93.68167160867
 30
0.0
 11
-726.390500119793
 21
93.68167160867
 31
0.0
1001
ACAD
1000
TCW40_DEV_WIDTH
1002
{
1040
0.011811023578
1002
}
  0
LINE
  5
127
102
{ACAD_REACTORS
330
142
102
}
100
AcDbEntity
  8
KAUFTEIL
  6
CONTINUOUS
 48
0.20000000298
100
AcDbLine
 10
-718.390500119793
 20
93.68167160867
 30
0.0
 11
-720.390500119793
 21
93.68167160867
 31
0.0
1001
ACAD
1000
TCW40_DEV_WIDTH
1002
{
1040
0.011811023578
1002
}
  0
LINE
  5
128
102
{ACAD_REACTORS
330
142
102
}
100
AcDbEntity
  8
KAUFTEIL
  6
CONTINUOUS
 48
0.20000000298
100
AcDbLine
 10
-718.390500119793
 20
71.68167160867
 30
0.0
 11
-718.390500119793
 21
93.68167160867
 31
0.0
1001
ACAD
1000
TCW40_DEV_WIDTH
1002
{
1040
0.011811023578
1002
}
  0
ARC
  5
129
102
{ACAD_REACTORS
330
142
102
}
100
AcDbEntity
  8
KAUFTEIL
  6
CONTINUOUS
 48
0.20000000298
100
AcDbCircle
 10
-797.390500119793
 20
116.68167160867
 30
0.0
 40
59.0
100
AcDbArc
 50
71.21402888349
 51
284.47751218593
1001
ACAD
1000
TCW40_DEV_WIDTH
1002
{
1040
0.011811023578
1002
}
  0
LINE
  5
12A
102
{ACAD_REACTORS
330
142
102
}
100
AcDbEntity
  8
KAUFTEIL
  6
CONTINUOUS
 48
0.20000000298
100
AcDbLine
 10
-832.390500119793
 20
193.68167160867
 30
0.0
 11
-832.390500119793
 21
176.14594660867
 31
0.0
1001
ACAD
1000
TCW40_DEV_WIDTH
1002
{
1040
0.011811023578
1002
}
  0
LINE
  5
12B
102
{ACAD_REACTORS
330
142
102
}
100
AcDbEntity
  8
KAUFTEIL
  6
CONTINUOUS
 48
0.20000000298
100
AcDbLine
 10
-834.890500119793
 20
192.18167160867
 30
0.0
 11
-834.890500119793
 21
197.18167160867
 31
0.0
1001
ACAD
1000
TCW40_DEV_WIDTH
1002
{
1040
0.011811023578
1002
}
  0
LINE
  5
12C
102
{ACAD_REACTORS
330
142
102
}
100
AcDbEntity
  8
KAUFTEIL
  6
CONTINUOUS
 48
0.20000000298
100
AcDbLine
 10
-829.890500119793
 20
197.18167160867
 30
0.0
 11
-829.890500119793
 21
220.48167160867
 31
0.0
1001
ACAD
1000
TCW40_DEV_WIDTH
1002
{
1040
0.011811023578
1002
}
  0
LINE
  5
12D
102
{ACAD_REACTORS
330
142
102
}
100
AcDbEntity
  8
KAUFTEIL
  6
CONTINUOUS
 48
0.20000000298
100
AcDbLine
 10
-816.390500119793
 20
220.48167160867
 30
0.0
 11
-816.390500119793
 21
197.18167160867
 31
0.0
1001
ACAD
1000
TCW40_DEV_WIDTH
1002
{
1040
0.011811023578
1002
}
  0
ARC
  5
12E
102
{ACAD_REACTORS
330
142
102
}
100
AcDbEntity
  8
KAUFTEIL
  6
CONTINUOUS
 48
0.20000000298
100
AcDbCircle
 10
-797.390500119793
 20
116.68167160867
 30
0.0
 40
69.0
100
AcDbArc
 50
-51.184722473874
 51
-43.504046005673
1001
ACAD
1000
TCW40_DEV_WIDTH
1002
{
1040
0.011811023578
1002
}
  0
ARC
  5
12F
102
{ACAD_REACTORS
330
142
102
}
100
AcDbEntity
  8
KAUFTEIL
  6
CONTINUOUS
 48
0.20000000298
100
AcDbCircle
 10
-797.390500119793
 20
116.68167160867
 30
0.0
 40
69.0
100
AcDbArc
 50
80.826750616211
 51
256.591980468316
1001
ACAD
1000
TCW40_DEV_WIDTH
1002
{
1040
0.011811023578
1002
}
  0
ARC
  5
130
102
{ACAD_REACTORS
330
142
102
}
100
AcDbEntity
  8
KAUFTEIL
  6
CONTINUOUS
 48
0.20000000298
100
AcDbCircle
 10
-797.390500119793
 20
116.68167160867
 30
0.0
 40
69.0
100
AcDbArc
 50
72.482143567344
 51
75.492748073817
1001
ACAD
1000
TCW40_DEV_WIDTH
1002
{
1040
0.011811023578
1002
}
  0
ARC
  5
131
102
{ACAD_REACTORS
330
142
102
}
100
AcDbEntity
  8
KAUFTEIL
  6
CONTINUOUS
 48
0.20000000298
100
AcDbCircle
 10
-797.390500119793
 20
116.68167160867
 30
0.0
 40
69.0
100
AcDbArc
 50
43.504046005674
 51
55.582611289558
1001
ACAD
1000
TCW40_DEV_WIDTH
1002
{
1040
0.011811023578
1002
}
  0
LINE
  5
132
102
{ACAD_REACTORS
330
142
102
}
100
AcDbEntity
  8
KAUFTEIL
  6
STRICHPUNKT
 48
0.20000000298
100
AcDbLine
 10
-866.390500119793
 20
116.68167160867
 30
0.0
 11
-728.390500119793
 21
116.68167160867
 31
0.0
1001
ACAD
1000
TCW40_DEV_WIDTH
1002
{
1040
0.003937007859
1002
}
  0
LINE
  5
133
102
{ACAD_REACTORS
330
142
102
}
100
AcDbEntity
  8
KAUFTEIL
  6
STRICHPUNKT
 48
0.20000000298
100
AcDbLine
 10
-797.390500119793
 20
47.68167160867
 30
0.0
 11
-797.390500119793
 21
185.68167160867
 31
0.0
1001
ACAD
1000
TCW40_DEV_WIDTH
1002
{
1040
0.003937007859
1002
}
  0
LINE
  5
134
102
{ACAD_REACTORS
330
142
102
}
100
AcDbEntity
  8
KAUFTEIL
  6
CONTINUOUS
 48
0.20000000298
100
AcDbLine
 10
-768.390500119793
 20
164.18167160867
 30
0.0
 11
-768.390500119793
 21
166.68167160867
 31
0.0
1001
ACAD
1000
TCW40_DEV_WIDTH
1002
{
1040
0.011811023578
1002
}
  0
LINE
  5
135
102
{ACAD_REACTORS
330
142
102
}
100
AcDbEntity
  8
KAUFTEIL
  6
CONTINUOUS
 48
0.20000000298
100
AcDbLine
 10
-768.390500119793
 20
69.18167160867
 30
0.0
 11
-768.390500119793
 21
66.68167160867
 31
0.0
1001
ACAD
1000
TCW40_DEV_WIDTH
1002
{
1040
0.011811023578
1002
}
  0
LINE
  5
136
102
{ACAD_REACTORS
330
142
102
}
100
AcDbEntity
  8
KAUFTEIL
  6
CONTINUOUS
 48
0.20000000298
100
AcDbLine
 10
-783.390500119793
 20
164.18167160867
 30
0.0
 11
-783.390500119793
 21
166.68167160867
 31
0.0
1001
ACAD
1000
TCW40_DEV_WIDTH
1002
{
1040
0.011811023578
1002
}
  0
LINE
  5
137
102
{ACAD_REACTORS
330
142
102
}
100
AcDbEntity
  8
KAUFTEIL
  6
CONTINUOUS
 48
0.20000000298
100
AcDbLine
 10
-783.390500119793
 20
166.68167160867
 30
0.0
 11
-753.390500119793
 21
166.68167160867
 31
0.0
1001
ACAD
1000
TCW40_DEV_WIDTH
1002
{
1040
0.011811023578
1002
}
  0
LINE
  5
138
102
{ACAD_REACTORS
330
142
102
}
100
AcDbEntity
  8
KAUFTEIL
  6
CONTINUOUS
 48
0.20000000298
100
AcDbLine
 10
-753.390500119793
 20
166.68167160867
 30
0.0
 11
-753.390500119793
 21
164.18167160867
 31
0.0
1001
ACAD
1000
TCW40_DEV_WIDTH
1002
{
1040
0.011811023578
1002
}
  0
LINE
  5
139
102
{ACAD_REACTORS
330
142
102
}
100
AcDbEntity
  8
KAUFTEIL
  6
CONTINUOUS
 48
0.20000000298
100
AcDbLine
 10
-783.390500119793
 20
66.68167160867
 30
0.0
 11
-783.390500119793
 21
69.18167160867
 31
0.0
1001
ACAD
1000
TCW40_DEV_WIDTH
1002
{
1040
0.011811023578
1002
}
  0
LINE
  5
13A
102
{ACAD_REACTORS
330
142
102
}
100
AcDbEntity
  8
KAUFTEIL
  6
CONTINUOUS
 48
0.20000000298
100
AcDbLine
 10
-753.390500119793
 20
66.68167160867
 30
0.0
 11
-783.390500119793
 21
66.68167160867
 31
0.0
1001
ACAD
1000
TCW40_DEV_WIDTH
1002
{
1040
0.011811023578
1002
}
  0
LINE
  5
13B
102
{ACAD_REACTORS
330
142
102
}
100
AcDbEntity
  8
KAUFTEIL
  6
CONTINUOUS
 48
0.20000000298
100
AcDbLine
 10
-753.390500119793
 20
69.18167160867
 30
0.0
 11
-753.390500119793
 21
66.68167160867
 31
0.0
1001
ACAD
1000
TCW40_DEV_WIDTH
1002
{
1040
0.011811023578
1002
}
  0
LINE
  5
13C
102
{ACAD_REACTORS
330
142
102
}
100
AcDbEntity
  8
KAUFTEIL
  6
STRICHPUNKT
 48
0.20000000298
100
AcDbLine
 10
-732.398495767511
 20
79.18167160867
 30
0.0
 11
-715.065934938841
 21
79.18167160867
 31
0.0
1001
ACAD
1000
TCW40_DEV_WIDTH
1002
{
1040
0.003937007859
1002
}
  0
LINE
  5
13D
102
{ACAD_REACTORS
330
142
102
}
100
AcDbEntity
  8
KAUFTEIL
  6
STRICHPUNKT
 48
0.20000000298
100
AcDbLine
 10
-732.398495767511
 20
154.18167160867
 30
0.0
 11
-715.065934938841
 21
154.18167160867
 31
0.0
1001
ACAD
1000
TCW40_DEV_WIDTH
1002
{
1040
0.003937007859
1002
}
  0
LINE
  5
13E
102
{ACAD_REACTORS
330
142
102
}
100
AcDbEntity
  8
KAUFTEIL
  6
CONTINUOUS
 48
0.20000000298
100
AcDbLine
 10
-723.390500119793
 20
48.381671608657
 30
0.0
 11
-717.385503934489
 21
48.381671608657
 31
0.0
1001
ACAD
1000
TCW40_DEV_WIDTH
1002
{
1040
0.011811023578
1002
}
1001
TCAD
1000
TCW_ATTRIBUTE
1002
{
1000
Linie
1002
}
  0
LINE
  5
13F
102
{ACAD_REACTORS
330
142
102
}
100
AcDbEntity
  8
KAUFTEIL
  6
CONTINUOUS
 48
0.20000000298
100
AcDbLine
 10
-834.890500119793
 20
197.18167160867
 30
0.0
 11
-797.390500119793
 21
197.18167160867
 31
0.0
1001
ACAD
1000
TCW40_DEV_WIDTH
1002
{
1040
0.011811023578
1002
}
  0
LINE
  5
140
102
{ACAD_REACTORS
330
142
102
}
100
AcDbEntity
  8
KAUFTEIL
  6
CONTINUOUS
 48
0.20000000298
100
AcDbLine
 10
-797.390500119793
 20
193.68167160867
 30
0.0
 11
-832.390500119793
 21
193.68167160867
 31
0.0
1001
ACAD
1000
TCW40_DEV_WIDTH
1002
{
1040
0.011811023578
1002
}
  0
LINE
  5
141
102
{ACAD_REACTORS
330
142
102
}
100
AcDbEntity
  8
KAUFTEIL
  6
CONTINUOUS
 48
0.20000000298
100
AcDbLine
 10
-786.390500119793
 20
192.18167160867
 30
0.0
 11
-834.890500119793
 21
192.18167160867
 31
0.0
1001
ACAD
1000
TCW40_DEV_WIDTH
1002
{
1040
0.011811023578
1002
}
  0
LINE
  5
143
102
{ACAD_REACTORS
330
147
102
}
100
AcDbEntity
  8
0
  6
CONTINUOUS
 62
           7
100
AcDbLine
 10
-663.613977485013
 20
354.253388384425
 30
0.0
 11
-663.613977485013
 21
-145.746611615575
 31
0.0
1001
ACAD
1000
TCW40_DEV_WIDTH
1002
{
1040
0.007874015719
1002
}
  0
LINE
  5
144
102
{ACAD_REACTORS
330
147
102
}
100
AcDbEntity
  8
0
  6
CONTINUOUS
 62
           7
100
AcDbLine
 10
-663.613977485013
 20
-145.746611615575
 30
0.0
 11
-1376.113977485013
 21
-145.746611615575
 31
0.0
1001
ACAD
1000
TCW40_DEV_WIDTH
1002
{
1040
0.007874015719
1002
}
  0
LINE
  5
145
102
{ACAD_REACTORS
330
147
102
}
100
AcDbEntity
  8
0
  6
CONTINUOUS
 62
           7
100
AcDbLine
 10
-1376.113977485013
 20
-145.746611615575
 30
0.0
 11
-1376.113977485013
 21
354.253388384425
 31
0.0
1001
ACAD
1000
TCW40_DEV_WIDTH
1002
{
1040
0.007874015719
1002
}
  0
LINE
  5
146
102
{ACAD_REACTORS
330
147
102
}
100
AcDbEntity
  8
0
  6
CONTINUOUS
 62
           7
100
AcDbLine
 10
-1376.113977485013
 20
354.253388384425
 30
0.0
 11
-663.613977485013
 21
354.253388384425
 31
0.0
1001
ACAD
1000
TCW40_DEV_WIDTH
1002
{
1040
0.007874015719
1002
}
  0
LINE
  5
148
102
{ACAD_REACTORS
330
169
102
}
100
AcDbEntity
  8
ENDSCHALTER
  6
CONTINUOUS
 48
0.20000000298
100
AcDbLine
 10
-786.390500119793
 20
183.48167160867
 30
0.0
 11
-786.390500119793
 21
193.48167160867
 31
0.0
1001
ACAD
1000
TCW40_DEV_WIDTH
1002
{
1040
0.011811023578
1002
}
1001
TCAD
1000
TCW_ATTRIBUTE
1002
{
1000
Linie
1002
}
  0
LINE
  5
149
102
{ACAD_REACTORS
330
169
102
}
100
AcDbEntity
  8
ENDSCHALTER
  6
CONTINUOUS
 48
0.20000000298
100
AcDbLine
 10
-786.390500119793
 20
183.48167160867
 30
0.0
 11
-768.390500119793
 21
183.48167160867
 31
0.0
1001
ACAD
1000
TCW40_DEV_WIDTH
1002
{
1040
0.011811023578
1002
}
1001
TCAD
1000
TCW_ATTRIBUTE
1002
{
1000
Linie
1002
}
  0
LINE
  5
14A
102
{ACAD_REACTORS
330
169
102
}
100
AcDbEntity
  8
ENDSCHALTER
  6
CONTINUOUS
 48
0.20000000298
100
AcDbLine
 10
-797.390500119793
 20
193.48167160867
 30
0.0
 11
-768.390500119793
 21
193.48167160867
 31
0.0
1001
ACAD
1000
TCW40_DEV_WIDTH
1002
{
1040
0.011811023578
1002
}
1001
TCAD
1000
TCW_ATTRIBUTE
1002
{
1000
Linie
1002
}
  0
LINE
  5
14B
102
{ACAD_REACTORS
330
169
102
}
100
AcDbEntity
  8
ENDSCHALTER
  6
CONTINUOUS
 48
0.20000000298
100
AcDbLine
 10
-797.390500119793
 20
249.48167160867
 30
0.0
 11
-768.390500119793
 21
249.48167160867
 31
0.0
1001
ACAD
1000
TCW40_DEV_WIDTH
1002
{
1040
0.011811023578
1002
}
1001
TCAD
1000
TCW_ATTRIBUTE
1002
{
1000
Linie
1002
}
  0
LINE
  5
14C
102
{ACAD_REACTORS
330
169
102
}
100
AcDbEntity
  8
ENDSCHALTER
  6
CONTINUOUS
 48
0.20000000298
100
AcDbLine
 10
-773.390500119793
 20
182.48167160867
 30
0.0
 11
-773.390500119793
 21
183.48167160867
 31
0.0
1001
ACAD
1000
TCW40_DEV_WIDTH
1002
{
1040
0.011811023578
1002
}
1001
TCAD
1000
TCW_ATTRIBUTE
1002
{
1000
Linie
1002
}
  0
LINE
  5
14D
102
{ACAD_REACTORS
330
169
102
}
100
AcDbEntity
  8
ENDSCHALTER
  6
CONTINUOUS
 48
0.20000000298
100
AcDbLine
 10
-739.390500119793
 20
193.48167160867
 30
0.0
 11
-739.390500119793
 21
249.48167160867
 31
0.0
1001
ACAD
1000
TCW40_DEV_WIDTH
1002
{
1040
0.011811023578
1002
}
1001
TCAD
1000
TCW_ATTRIBUTE
1002
{
1000
Linie
1002
}
  0
LINE
  5
14E
102
{ACAD_REACTORS
330
169
102
}
100
AcDbEntity
  8
ENDSCHALTER
  6
CONTINUOUS
 48
0.20000000298
100
AcDbLine
 10
-750.390500119793
 20
183.48167160867
 30
0.0
 11
-750.390500119793
 21
193.48167160867
 31
0.0
1001
ACAD
1000
TCW40_DEV_WIDTH
1002
{
1040
0.011811023578
1002
}
1001
TCAD
1000
TCW_ATTRIBUTE
1002
{
1000
Linie
1002
}
  0
LINE
  5
14F
102
{ACAD_REACTORS
330
169
102
}
100
AcDbEntity
  8
ENDSCHALTER
  6
CONTINUOUS
 48
0.20000000298
100
AcDbLine
 10
-750.390500119793
 20
183.48167160867
 30
0.0
 11
-768.390500119793
 21
183.48167160867
 31
0.0
1001
ACAD
1000
TCW40_DEV_WIDTH
1002
{
1040
0.011811023578
1002
}
1001
TCAD
1000
TCW_ATTRIBUTE
1002
{
1000
Linie
1002
}
  0
LINE
  5
150
102
{ACAD_REACTORS
330
169
102
}
100
AcDbEntity
  8
ENDSCHALTER
  6
CONTINUOUS
 48
0.20000000298
100
AcDbLine
 10
-739.390500119793
 20
193.48167160867
 30
0.0
 11
-768.390500119793
 21
193.48167160867
 31
0.0
1001
ACAD
1000
TCW40_DEV_WIDTH
1002
{
1040
0.011811023578
1002
}
1001
TCAD
1000
TCW_ATTRIBUTE
1002
{
1000
Linie
1002
}
  0
LINE
  5
151
102
{ACAD_REACTORS
330
169
102
}
100
AcDbEntity
  8
ENDSCHALTER
  6
CONTINUOUS
 48
0.20000000298
100
AcDbLine
 10
-739.390500119793
 20
249.48167160867
 30
0.0
 11
-768.390500119793
 21
249.48167160867
 31
0.0
1001
ACAD
1000
TCW40_DEV_WIDTH
1002
{
1040
0.011811023578
1002
}
1001
TCAD
1000
TCW_ATTRIBUTE
1002
{
1000
Linie
1002
}
  0
LINE
  5
152
102
{ACAD_REACTORS
330
169
102
}
100
AcDbEntity
  8
ENDSCHALTER
  6
CONTINUOUS
 48
0.20000000298
100
AcDbLine
 10
-763.390500119793
 20
182.48167160867
 30
0.0
 11
-763.390500119793
 21
183.48167160867
 31
0.0
1001
ACAD
1000
TCW40_DEV_WIDTH
1002
{
1040
0.011811023578
1002
}
1001
TCAD
1000
TCW_ATTRIBUTE
1002
{
1000
Linie
1002
}
  0
LINE
  5
153
102
{ACAD_REACTORS
330
169
102
}
100
AcDbEntity
  8
ENDSCHALTER
  6
STRICHPUNKT
 48
0.20000000298
100
AcDbLine
 10
-768.390500119793
 20
163.48167160867
 30
0.0
 11
-768.390500119793
 21
249.48167160867
 31
0.0
1001
ACAD
1000
TCW40_DEV_WIDTH
1002
{
1040
0.003937007859
1002
}
1001
TCAD
1000
TCW_ATTRIBUTE
1002
{
1000
Linie
1002
}
  0
LINE
  5
154
102
{ACAD_REACTORS
330
169
102
}
100
AcDbEntity
  8
ENDSCHALTER
  6
CONTINUOUS
 48
0.20000000298
100
AcDbLine
 10
-801.390500119793
 20
220.48167160867
 30
0.0
 11
-801.390500119793
 21
245.48167160867
 31
0.0
1001
ACAD
1000
TCW40_DEV_WIDTH
1002
{
1040
0.011811023578
1002
}
1001
TCAD
1000
TCW_ATTRIBUTE
1002
{
1000
Linie
1002
}
  0
ARC
  5
155
102
{ACAD_REACTORS
330
169
102
}
100
AcDbEntity
  8
ENDSCHALTER
  6
CONTINUOUS
 48
0.20000000298
100
AcDbCircle
 10
-861.390500119793
 20
240.48167160867
 30
0.0
 40
5.0
100
AcDbArc
 50
90.0
 51
180.0
1001
ACAD
1000
TCW40_DEV_WIDTH
1002
{
1040
0.011811023578
1002
}
1001
TCAD
1000
TCW_ATTRIBUTE
1002
{
1000
Linie
1002
}
  0
LINE
  5
156
102
{ACAD_REACTORS
330
169
102
}
100
AcDbEntity
  8
ENDSCHALTER
  6
CONTINUOUS
 48
0.20000000298
100
AcDbLine
 10
-861.390500119793
 20
245.48167160867
 30
0.0
 11
-801.390500119793
 21
245.48167160867
 31
0.0
1001
ACAD
1000
TCW40_DEV_WIDTH
1002
{
1040
0.011811023578
1002
}
1001
TCAD
1000
TCW_ATTRIBUTE
1002
{
1000
Linie
1002
}
  0
ARC
  5
157
102
{ACAD_REACTORS
330
169
102
}
100
AcDbEntity
  8
ENDSCHALTER
  6
CONTINUOUS
 48
0.20000000298
100
AcDbCircle
 10
-861.390500119793
 20
225.48167160867
 30
0.0
 40
5.0
100
AcDbArc
 50
180.0
 51
270.0
1001
ACAD
1000
TCW40_DEV_WIDTH
1002
{
1040
0.011811023578
1002
}
1001
TCAD
1000
TCW_ATTRIBUTE
1002
{
1000
Linie
1002
}
  0
LINE
  5
158
102
{ACAD_REACTORS
330
169
102
}
100
AcDbEntity
  8
ENDSCHALTER
  6
CONTINUOUS
 48
0.20000000298
100
AcDbLine
 10
-861.390500119793
 20
220.48167160867
 30
0.0
 11
-801.390500119793
 21
220.48167160867
 31
0.0
1001
ACAD
1000
TCW40_DEV_WIDTH
1002
{
1040
0.011811023578
1002
}
1001
TCAD
1000
TCW_ATTRIBUTE
1002
{
1000
Linie
1002
}
  0
LINE
  5
159
102
{ACAD_REACTORS
330
169
102
}
100
AcDbEntity
  8
ENDSCHALTER
  6
STRICHPUNKT
 48
0.20000000298
100
AcDbLine
 10
-793.390500119793
 20
232.98167160867
 30
0.0
 11
-866.390500119793
 21
232.98167160867
 31
0.0
1001
ACAD
1000
TCW40_DEV_WIDTH
1002
{
1040
0.003937007859
1002
}
1001
TCAD
1000
TCW_ATTRIBUTE
1002
{
1000
Linie
1002
}
  0
LINE
  5
15A
102
{ACAD_REACTORS
330
169
102
}
100
AcDbEntity
  8
ENDSCHALTER
  6
CONTINUOUS
 48
0.20000000298
100
AcDbLine
 10
-866.390500119793
 20
225.48167160867
 30
0.0
 11
-866.390500119793
 21
240.48167160867
 31
0.0
1001
ACAD
1000
TCW40_DEV_WIDTH
1002
{
1040
0.011811023578
1002
}
1001
TCAD
1000
TCW_ATTRIBUTE
1002
{
1000
Linie
1002
}
  0
ARC
  5
15B
102
{ACAD_REACTORS
330
169
102
}
100
AcDbEntity
  8
ENDSCHALTER
  6
STRICHPUNKT
 48
0.20000000298
100
AcDbCircle
 10
-866.390500119793
 20
252.98167160867
 30
0.0
 40
20.0
100
AcDbArc
 50
180.0
 51
270.0
1001
ACAD
1000
TCW40_DEV_WIDTH
1002
{
1040
0.003937007859
1002
}
1001
TCAD
1000
TCW_ATTRIBUTE
1002
{
1000
Kreis / Bogen
1002
}
  0
ARC
  5
15C
102
{ACAD_REACTORS
330
169
102
}
100
AcDbEntity
  8
ENDSCHALTER
  6
CONTINUOUS
 48
0.20000000298
100
AcDbCircle
 10
-866.390500119793
 20
252.98167160867
 30
0.0
 40
16.0
100
AcDbArc
 50
180.0
 51
270.0
1001
ACAD
1000
TCW40_DEV_WIDTH
1002
{
1040
0.011811023578
1002
}
1001
TCAD
1000
TCW_ATTRIBUTE
1002
{
1000
Kreis / Bogen
1002
}
  0
ARC
  5
15D
102
{ACAD_REACTORS
330
169
102
}
100
AcDbEntity
  8
ENDSCHALTER
  6
CONTINUOUS
 48
0.20000000298
100
AcDbCircle
 10
-866.390500119793
 20
252.98167160867
 30
0.0
 40
24.0
100
AcDbArc
 50
180.0
 51
270.0
1001
ACAD
1000
TCW40_DEV_WIDTH
1002
{
1040
0.011811023578
1002
}
1001
TCAD
1000
TCW_ATTRIBUTE
1002
{
1000
Kreis / Bogen
1002
}
  0
LINE
  5
15E
102
{ACAD_REACTORS
330
169
102
}
100
AcDbEntity
  8
ENDSCHALTER
  6
STRICHPUNKT
 48
0.20000000298
100
AcDbLine
 10
-886.390500119793
 20
252.98167160867
 30
0.0
 11
-886.390500119793
 21
287.877806392237
 31
0.0
1001
ACAD
1000
TCW40_DEV_WIDTH
1002
{
1040
0.003937007859
1002
}
1001
TCAD
1000
TCW_ATTRIBUTE
1002
{
1000
Linie
1002
}
  0
LINE
  5
15F
102
{ACAD_REACTORS
330
169
102
}
100
AcDbEntity
  8
ENDSCHALTER
  6
CONTINUOUS
 48
0.20000000298
100
AcDbLine
 10
-890.390500119793
 20
252.98167160867
 30
0.0
 11
-890.390500119793
 21
286.597806392237
 31
0.0
1001
ACAD
1000
TCW40_DEV_WIDTH
1002
{
1040
0.011811023578
1002
}
1001
TCAD
1000
TCW_ATTRIBUTE
1002
{
1000
Linie
1002
}
  0
LINE
  5
160
102
{ACAD_REACTORS
330
169
102
}
100
AcDbEntity
  8
ENDSCHALTER
  6
CONTINUOUS
 48
0.20000000298
100
AcDbLine
 10
-882.390500119793
 20
252.98167160867
 30
0.0
 11
-882.390500119793
 21
289.157806392237
 31
0.0
1001
ACAD
1000
TCW40_DEV_WIDTH
1002
{
1040
0.011811023578
1002
}
1001
TCAD
1000
TCW_ATTRIBUTE
1002
{
1000
Linie
1002
}
  0
LINE
  5
161
102
{ACAD_REACTORS
330
169
102
}
100
AcDbEntity
  8
ENDSCHALTER
  6
STRICHPUNKT
 48
0.20000000298
100
AcDbLine
 10
-881.132896058757
 20
289.560239691769
 30
0.0
 11
-892.269433945438
 21
285.996547568031
 31
0.0
1001
ACAD
1000
TCW40_DEV_WIDTH
1002
{
1040
0.003937007859
1002
}
1001
TCAD
1000
TCW_ATTRIBUTE
1002
{
1000
Linie
1002
}
  0
LINE
  5
162
102
{ACAD_REACTORS
330
169
102
}
100
AcDbEntity
  8
ENDSCHALTER
  6
CONTINUOUS
 48
0.20000000298
100
AcDbLine
 10
-797.390500119793
 20
193.48167160867
 30
0.0
 11
-797.390500119793
 21
218.48167160867
 31
0.0
1001
ACAD
1000
TCW40_DEV_WIDTH
1002
{
1040
0.011811023578
1002
}
1001
TCAD
1000
TCW_ATTRIBUTE
1002
{
1000
Linie
1002
}
  0
LINE
  5
163
102
{ACAD_REACTORS
330
169
102
}
100
AcDbEntity
  8
ENDSCHALTER
  6
CONTINUOUS
 48
0.20000000298
100
AcDbLine
 10
-797.390500119793
 20
247.48167160867
 30
0.0
 11
-797.390500119793
 21
249.48167160867
 31
0.0
1001
ACAD
1000
TCW40_DEV_WIDTH
1002
{
1040
0.011811023578
1002
}
1001
TCAD
1000
TCW_ATTRIBUTE
1002
{
1000
Linie
1002
}
  0
LINE
  5
164
102
{ACAD_REACTORS
330
169
102
}
100
AcDbEntity
  8
ENDSCHALTER
  6
STRICHPUNKT
 48
0.20000000298
100
AcDbLine
 10
-744.423052203126
 20
193.48167160867
 30
0.0
 11
-744.423052203126
 21
202.415635177058
 31
0.0
1001
ACAD
1000
TCW40_DEV_WIDTH
1002
{
1040
0.003937007859
1002
}
1001
TCAD
1000
TCW_ATTRIBUTE
1002
{
1000
Linie
1002
}
  0
LINE
  5
165
102
{ACAD_REACTORS
330
169
102
}
100
AcDbEntity
  8
ENDSCHALTER
  6
STRICHPUNKT
 48
0.20000000298
100
AcDbLine
 10
-792.390500119793
 20
193.48167160867
 30
0.0
 11
-792.390500119793
 21
202.72770077237
 31
0.0
1001
ACAD
1000
TCW40_DEV_WIDTH
1002
{
1040
0.003937007859
1002
}
1001
TCAD
1000
TCW_ATTRIBUTE
1002
{
1000
Linie
1002
}
  0
ARC
  5
166
102
{ACAD_REACTORS
330
169
102
}
100
AcDbEntity
  8
ENDSCHALTER
  6
CONTINUOUS
 48
0.20000000298
100
AcDbCircle
 10
-821.671750119793
 20
232.98167160867
 30
0.0
 40
28.28125
100
AcDbArc
 50
-30.844322637478
 51
30.844322637478
1001
ACAD
1000
TCW40_DEV_WIDTH
1002
{
1040
0.011811023578
1002
}
1001
TCAD
1000
TCW_ATTRIBUTE
1002
{
1000
Kreis / Bogen
1002
}
  0
LINE
  5
167
102
{ACAD_REACTORS
330
169
102
}
100
AcDbEntity
  8
ENDSCHALTER
  6
CONTINUOUS
 48
0.20000000298
100
AcDbLine
 10
-797.390500119793
 20
218.48167160867
 30
0.0
 11
-801.390500119793
 21
220.48167160867
 31
0.0
1001
ACAD
1000
TCW40_DEV_WIDTH
1002
{
1040
0.011811023578
1002
}
1001
TCAD
1000
TCW_ATTRIBUTE
1002
{
1000
Linie
1002
}
  0
LINE
  5
168
102
{ACAD_REACTORS
330
169
102
}
100
AcDbEntity
  8
ENDSCHALTER
  6
CONTINUOUS
 48
0.20000000298
100
AcDbLine
 10
-797.390500119793
 20
247.48167160867
 30
0.0
 11
-801.390500119793
 21
245.48167160867
 31
0.0
1001
ACAD
1000
TCW40_DEV_WIDTH
1002
{
1040
0.011811023578
1002
}
1001
TCAD
1000
TCW_ATTRIBUTE
1002
{
1000
Linie
1002
}
  0
LINE
  5
16A
102
{ACAD_REACTORS
330
1CE
102
}
100
AcDbEntity
  8
KAUFTEIL
  6
STRICHPUNKT
 48
0.20000000298
100
AcDbLine
 10
-1291.061543233956
 20
116.68167160867
 30
0.0
 11
-1159.061543233956
 21
116.68167160867
 31
0.0
1001
ACAD
1000
TCW40_DEV_WIDTH
1002
{
1040
0.003937007859
1002
}
  0
LINE
  5
16B
102
{ACAD_REACTORS
330
1CE
102
}
100
AcDbEntity
  8
KAUFTEIL
  6
STRICHPUNKT
 48
0.20000000298
100
AcDbLine
 10
-1241.061543233956
 20
69.18167160867
 30
0.0
 11
-1241.061543233956
 21
164.18167160867
 31
0.0
1001
ACAD
1000
TCW40_DEV_WIDTH
1002
{
1040
0.003937007859
1002
}
  0
LINE
  5
16C
102
{ACAD_REACTORS
330
1CE
102
}
100
AcDbEntity
  8
KAUFTEIL
  6
CONTINUOUS
 48
0.20000000298
100
AcDbLine
 10
-1248.561543233956
 20
161.68167160867
 30
0.0
 11
-1248.561543233956
 21
164.18167160867
 31
0.0
1001
ACAD
1000
TCW40_DEV_WIDTH
1002
{
1040
0.011811023578
1002
}
  0
LINE
  5
16D
102
{ACAD_REACTORS
330
1CE
102
}
100
AcDbEntity
  8
KAUFTEIL
  6
CONTINUOUS
 48
0.20000000298
100
AcDbLine
 10
-1273.197971233956
 20
161.68167160867
 30
0.0
 11
-1273.197971233956
 21
164.18167160867
 31
0.0
1001
ACAD
1000
TCW40_DEV_WIDTH
1002
{
1040
0.011811023578
1002
}
  0
LINE
  5
16E
102
{ACAD_REACTORS
330
1CE
102
}
100
AcDbEntity
  8
KAUFTEIL
  6
CONTINUOUS
 48
0.20000000298
100
AcDbLine
 10
-1283.561543233956
 20
161.68167160867
 30
0.0
 11
-1283.561543233956
 21
164.18167160867
 31
0.0
1001
ACAD
1000
TCW40_DEV_WIDTH
1002
{
1040
0.011811023578
1002
}
  0
LINE
  5
16F
102
{ACAD_REACTORS
330
1CE
102
}
100
AcDbEntity
  8
KAUFTEIL
  6
CONTINUOUS
 48
0.20000000298
100
AcDbLine
 10
-1283.561543233956
 20
164.18167160867
 30
0.0
 11
-1198.561543233956
 21
164.18167160867
 31
0.0
1001
ACAD
1000
TCW40_DEV_WIDTH
1002
{
1040
0.011811023578
1002
}
  0
LINE
  5
170
102
{ACAD_REACTORS
330
1CE
102
}
100
AcDbEntity
  8
KAUFTEIL
  6
CONTINUOUS
 48
0.20000000298
100
AcDbLine
 10
-1208.925115233956
 20
161.68167160867
 30
0.0
 11
-1208.925115233956
 21
164.18167160867
 31
0.0
1001
ACAD
1000
TCW40_DEV_WIDTH
1002
{
1040
0.011811023578
1002
}
  0
LINE
  5
171
102
{ACAD_REACTORS
330
1CE
102
}
100
AcDbEntity
  8
KAUFTEIL
  6
CONTINUOUS
 48
0.20000000298
100
AcDbLine
 10
-1233.561543233956
 20
161.68167160867
 30
0.0
 11
-1233.561543233956
 21
164.18167160867
 31
0.0
1001
ACAD
1000
TCW40_DEV_WIDTH
1002
{
1040
0.011811023578
1002
}
  0
LINE
  5
172
102
{ACAD_REACTORS
330
1CE
102
}
100
AcDbEntity
  8
KAUFTEIL
  6
STRICHPUNKT
 48
0.20000000298
100
AcDbLine
 10
-1175.061543233956
 20
149.68167160867
 30
0.0
 11
-1175.061543233956
 21
162.68167160867
 31
0.0
1001
ACAD
1000
TCW40_DEV_WIDTH
1002
{
1040
0.003937007859
1002
}
  0
LINE
  5
173
102
{ACAD_REACTORS
330
1CE
102
}
100
AcDbEntity
  8
KAUFTEIL
  6
GESTRICHELT
 48
0.20000000298
100
AcDbLine
 10
-1187.561543233956
 20
149.68167160867
 30
0.0
 11
-1187.561543233956
 21
161.68167160867
 31
0.0
1001
ACAD
1000
TCW40_DEV_WIDTH
1002
{
1040
0.011811023578
1002
}
  0
LINE
  5
174
102
{ACAD_REACTORS
330
1CE
102
}
100
AcDbEntity
  8
KAUFTEIL
  6
CONTINUOUS
 48
0.20000000298
100
AcDbLine
 10
-1241.359543233956
 20
139.68167160867
 30
0.0
 11
-1241.359543233956
 21
161.68167160867
 31
0.0
1001
ACAD
1000
TCW40_DEV_WIDTH
1002
{
1040
0.011811023578
1002
}
  0
LINE
  5
175
102
{ACAD_REACTORS
330
1CE
102
}
100
AcDbEntity
  8
KAUFTEIL
  6
CONTINUOUS
 48
0.20000000298
100
AcDbLine
 10
-1287.061543233956
 20
139.68167160867
 30
0.0
 11
-1287.061543233956
 21
161.68167160867
 31
0.0
1001
ACAD
1000
TCW40_DEV_WIDTH
1002
{
1040
0.011811023578
1002
}
  0
LINE
  5
176
102
{ACAD_REACTORS
330
1CE
102
}
100
AcDbEntity
  8
KAUFTEIL
  6
CONTINUOUS
 48
0.20000000298
100
AcDbLine
 10
-1289.061543233956
 20
71.68167160867
 30
0.0
 11
-1289.061543233956
 21
161.68167160867
 31
0.0
1001
ACAD
1000
TCW40_DEV_WIDTH
1002
{
1040
0.011811023578
1002
}
  0
LINE
  5
177
102
{ACAD_REACTORS
330
1CE
102
}
100
AcDbEntity
  8
KAUFTEIL
  6
CONTINUOUS
 48
0.20000000298
100
AcDbLine
 10
-1291.061543233956
 20
139.68167160867
 30
0.0
 11
-1291.061543233956
 21
161.68167160867
 31
0.0
1001
ACAD
1000
TCW40_DEV_WIDTH
1002
{
1040
0.011811023578
1002
}
  0
LINE
  5
178
102
{ACAD_REACTORS
330
1CE
102
}
100
AcDbEntity
  8
KAUFTEIL
  6
CONTINUOUS
 48
0.20000000298
100
AcDbLine
 10
-1291.061543233956
 20
161.68167160867
 30
0.0
 11
-1159.061543233956
 21
161.68167160867
 31
0.0
1001
ACAD
1000
TCW40_DEV_WIDTH
1002
{
1040
0.011811023578
1002
}
  0
LINE
  5
179
102
{ACAD_REACTORS
330
1CE
102
}
100
AcDbEntity
  8
KAUFTEIL
  6
CONTINUOUS
 48
0.20000000298
100
AcDbLine
 10
-1213.204543233956
 20
149.68167160867
 30
0.0
 11
-1213.204543233956
 21
161.68167160867
 31
0.0
1001
ACAD
1000
TCW40_DEV_WIDTH
1002
{
1040
0.011811023578
1002
}
  0
LINE
  5
17A
102
{ACAD_REACTORS
330
1CE
102
}
100
AcDbEntity
  8
KAUFTEIL
  6
CONTINUOUS
 48
0.20000000298
100
AcDbLine
 10
-1198.561543233956
 20
164.18167160867
 30
0.0
 11
-1198.561543233956
 21
161.68167160867
 31
0.0
1001
ACAD
1000
TCW40_DEV_WIDTH
1002
{
1040
0.011811023578
1002
}
  0
LINE
  5
17B
102
{ACAD_REACTORS
330
1CE
102
}
100
AcDbEntity
  8
KAUFTEIL
  6
GESTRICHELT
 48
0.20000000298
100
AcDbLine
 10
-1267.561543233956
 20
161.68167160867
 30
0.0
 11
-1267.561543233956
 21
154.18167160867
 31
0.0
1001
ACAD
1000
TCW40_DEV_WIDTH
1002
{
1040
0.011811023578
1002
}
  0
ARC
  5
17C
102
{ACAD_REACTORS
330
1CE
102
}
100
AcDbEntity
  8
KAUFTEIL
  6
GESTRICHELT
 48
0.20000000298
100
AcDbCircle
 10
-1271.061543233956
 20
154.18167160867
 30
0.0
 40
3.5
100
AcDbArc
 50
-178.363426
 51
0.0
1001
ACAD
1000
TCW40_DEV_WIDTH
1002
{
1040
0.011811023578
1002
}
  0
LINE
  5
17D
102
{ACAD_REACTORS
330
1CE
102
}
100
AcDbEntity
  8
KAUFTEIL
  6
GESTRICHELT
 48
0.20000000298
100
AcDbLine
 10
-1274.561543233956
 20
154.08167160867
 30
0.0
 11
-1274.561543233956
 21
161.68167160867
 31
0.0
1001
ACAD
1000
TCW40_DEV_WIDTH
1002
{
1040
0.011811023578
1002
}
  0
LINE
  5
17E
102
{ACAD_REACTORS
330
1CE
102
}
100
AcDbEntity
  8
KAUFTEIL
  6
GESTRICHELT
 48
0.20000000298
100
AcDbLine
 10
-1207.561543233956
 20
161.68167160867
 30
0.0
 11
-1207.561543233956
 21
154.18167160867
 31
0.0
1001
ACAD
1000
TCW40_DEV_WIDTH
1002
{
1040
0.011811023578
1002
}
  0
ARC
  5
17F
102
{ACAD_REACTORS
330
1CE
102
}
100
AcDbEntity
  8
KAUFTEIL
  6
GESTRICHELT
 48
0.20000000298
100
AcDbCircle
 10
-1211.061543233956
 20
154.18167160867
 30
0.0
 40
3.5
100
AcDbArc
 50
179.999996999999
 51
360.0
1001
ACAD
1000
TCW40_DEV_WIDTH
1002
{
1040
0.011811023578
1002
}
  0
LINE
  5
180
102
{ACAD_REACTORS
330
1CE
102
}
100
AcDbEntity
  8
KAUFTEIL
  6
GESTRICHELT
 48
0.20000000298
100
AcDbLine
 10
-1214.561543233956
 20
154.18167160867
 30
0.0
 11
-1214.561543233956
 21
161.68167160867
 31
0.0
1001
ACAD
1000
TCW40_DEV_WIDTH
1002
{
1040
0.011811023578
1002
}
  0
LINE
  5
181
102
{ACAD_REACTORS
330
1CE
102
}
100
AcDbEntity
  8
KAUFTEIL
  6
CONTINUOUS
 48
0.20000000298
100
AcDbLine
 10
-1164.061543233956
 20
161.68167160867
 30
0.0
 11
-1164.061543233956
 21
149.68167160867
 31
0.0
1001
ACAD
1000
TCW40_DEV_WIDTH
1002
{
1040
0.011811023578
1002
}
  0
LINE
  5
182
102
{ACAD_REACTORS
330
1CE
102
}
100
AcDbEntity
  8
KAUFTEIL
  6
CONTINUOUS
 48
0.20000000298
100
AcDbLine
 10
-1164.061543233956
 20
149.68167160867
 30
0.0
 11
-1213.204543233956
 21
149.68167160867
 31
0.0
1001
ACAD
1000
TCW40_DEV_WIDTH
1002
{
1040
0.011811023578
1002
}
  0
LINE
  5
183
102
{ACAD_REACTORS
330
1CE
102
}
100
AcDbEntity
  8
KAUFTEIL
  6
GESTRICHELT
 48
0.20000000298
100
AcDbLine
 10
-1162.561543233956
 20
149.68167160867
 30
0.0
 11
-1187.561543233956
 21
149.68167160867
 31
0.0
1001
ACAD
1000
TCW40_DEV_WIDTH
1002
{
1040
0.011811023578
1002
}
  0
LINE
  5
184
102
{ACAD_REACTORS
330
1CE
102
}
100
AcDbEntity
  8
KAUFTEIL
  6
GESTRICHELT
 48
0.20000000298
100
AcDbLine
 10
-1162.561543233956
 20
161.68167160867
 30
0.0
 11
-1162.561543233956
 21
149.68167160867
 31
0.0
1001
ACAD
1000
TCW40_DEV_WIDTH
1002
{
1040
0.011811023578
1002
}
  0
LINE
  5
185
102
{ACAD_REACTORS
330
1CE
102
}
100
AcDbEntity
  8
KAUFTEIL
  6
CONTINUOUS
 48
0.20000000298
100
AcDbLine
 10
-1164.061543233956
 20
139.68167160867
 30
0.0
 11
-1291.061543233956
 21
139.68167160867
 31
0.0
1001
ACAD
1000
TCW40_DEV_WIDTH
1002
{
1040
0.011811023578
1002
}
  0
LINE
  5
186
102
{ACAD_REACTORS
330
1CE
102
}
100
AcDbEntity
  8
KAUFTEIL
  6
CONTINUOUS
 48
0.20000000298
100
AcDbLine
 10
-1164.061543233956
 20
93.68167160867
 30
0.0
 11
-1164.061543233956
 21
139.68167160867
 31
0.0
1001
ACAD
1000
TCW40_DEV_WIDTH
1002
{
1040
0.011811023578
1002
}
  0
LINE
  5
187
102
{ACAD_REACTORS
330
1CE
102
}
100
AcDbEntity
  8
KAUFTEIL
  6
CONTINUOUS
 48
0.20000000298
100
AcDbLine
 10
-1248.561543233956
 20
71.68167160867
 30
0.0
 11
-1248.561543233956
 21
69.18167160867
 31
0.0
1001
ACAD
1000
TCW40_DEV_WIDTH
1002
{
1040
0.011811023578
1002
}
  0
LINE
  5
188
102
{ACAD_REACTORS
330
1CE
102
}
100
AcDbEntity
  8
KAUFTEIL
  6
CONTINUOUS
 48
0.20000000298
100
AcDbLine
 10
-1273.197971233956
 20
71.68167160867
 30
0.0
 11
-1273.197971233956
 21
69.18167160867
 31
0.0
1001
ACAD
1000
TCW40_DEV_WIDTH
1002
{
1040
0.011811023578
1002
}
  0
LINE
  5
189
102
{ACAD_REACTORS
330
1CE
102
}
100
AcDbEntity
  8
KAUFTEIL
  6
CONTINUOUS
 48
0.20000000298
100
AcDbLine
 10
-1283.561543233956
 20
71.68167160867
 30
0.0
 11
-1283.561543233956
 21
69.18167160867
 31
0.0
1001
ACAD
1000
TCW40_DEV_WIDTH
1002
{
1040
0.011811023578
1002
}
  0
LINE
  5
18A
102
{ACAD_REACTORS
330
1CE
102
}
100
AcDbEntity
  8
KAUFTEIL
  6
CONTINUOUS
 48
0.20000000298
100
AcDbLine
 10
-1283.561543233956
 20
69.18167160867
 30
0.0
 11
-1198.561543233956
 21
69.18167160867
 31
0.0
1001
ACAD
1000
TCW40_DEV_WIDTH
1002
{
1040
0.011811023578
1002
}
  0
LINE
  5
18B
102
{ACAD_REACTORS
330
1CE
102
}
100
AcDbEntity
  8
KAUFTEIL
  6
CONTINUOUS
 48
0.20000000298
100
AcDbLine
 10
-1208.925115233956
 20
71.68167160867
 30
0.0
 11
-1208.925115233956
 21
69.18167160867
 31
0.0
1001
ACAD
1000
TCW40_DEV_WIDTH
1002
{
1040
0.011811023578
1002
}
  0
LINE
  5
18C
102
{ACAD_REACTORS
330
1CE
102
}
100
AcDbEntity
  8
KAUFTEIL
  6
CONTINUOUS
 48
0.20000000298
100
AcDbLine
 10
-1233.561543233956
 20
71.68167160867
 30
0.0
 11
-1233.561543233956
 21
69.18167160867
 31
0.0
1001
ACAD
1000
TCW40_DEV_WIDTH
1002
{
1040
0.011811023578
1002
}
  0
LINE
  5
18D
102
{ACAD_REACTORS
330
1CE
102
}
100
AcDbEntity
  8
KAUFTEIL
  6
STRICHPUNKT
 48
0.20000000298
100
AcDbLine
 10
-1175.061543233956
 20
83.68167160867
 30
0.0
 11
-1175.061543233956
 21
70.68167160867
 31
0.0
1001
ACAD
1000
TCW40_DEV_WIDTH
1002
{
1040
0.003937007859
1002
}
  0
LINE
  5
18E
102
{ACAD_REACTORS
330
1CE
102
}
100
AcDbEntity
  8
KAUFTEIL
  6
GESTRICHELT
 48
0.20000000298
100
AcDbLine
 10
-1187.561543233956
 20
83.68167160867
 30
0.0
 11
-1187.561543233956
 21
71.68167160867
 31
0.0
1001
ACAD
1000
TCW40_DEV_WIDTH
1002
{
1040
0.011811023578
1002
}
  0
LINE
  5
18F
102
{ACAD_REACTORS
330
1CE
102
}
100
AcDbEntity
  8
KAUFTEIL
  6
CONTINUOUS
 48
0.20000000298
100
AcDbLine
 10
-1241.359543233956
 20
93.68167160867
 30
0.0
 11
-1241.359543233956
 21
71.68167160867
 31
0.0
1001
ACAD
1000
TCW40_DEV_WIDTH
1002
{
1040
0.011811023578
1002
}
  0
LINE
  5
190
102
{ACAD_REACTORS
330
1CE
102
}
100
AcDbEntity
  8
KAUFTEIL
  6
CONTINUOUS
 48
0.20000000298
100
AcDbLine
 10
-1287.061543233956
 20
93.68167160867
 30
0.0
 11
-1287.061543233956
 21
71.68167160867
 31
0.0
1001
ACAD
1000
TCW40_DEV_WIDTH
1002
{
1040
0.011811023578
1002
}
  0
LINE
  5
191
102
{ACAD_REACTORS
330
1CE
102
}
100
AcDbEntity
  8
KAUFTEIL
  6
CONTINUOUS
 48
0.20000000298
100
AcDbLine
 10
-1291.061543233956
 20
93.68167160867
 30
0.0
 11
-1291.061543233956
 21
71.68167160867
 31
0.0
1001
ACAD
1000
TCW40_DEV_WIDTH
1002
{
1040
0.011811023578
1002
}
  0
LINE
  5
192
102
{ACAD_REACTORS
330
1CE
102
}
100
AcDbEntity
  8
KAUFTEIL
  6
CONTINUOUS
 48
0.20000000298
100
AcDbLine
 10
-1291.061543233956
 20
71.68167160867
 30
0.0
 11
-1159.061543233956
 21
71.68167160867
 31
0.0
1001
ACAD
1000
TCW40_DEV_WIDTH
1002
{
1040
0.011811023578
1002
}
  0
LINE
  5
193
102
{ACAD_REACTORS
330
1CE
102
}
100
AcDbEntity
  8
KAUFTEIL
  6
CONTINUOUS
 48
0.20000000298
100
AcDbLine
 10
-1213.204543233956
 20
83.68167160867
 30
0.0
 11
-1213.204543233956
 21
71.68167160867
 31
0.0
1001
ACAD
1000
TCW40_DEV_WIDTH
1002
{
1040
0.011811023578
1002
}
  0
LINE
  5
194
102
{ACAD_REACTORS
330
1CE
102
}
100
AcDbEntity
  8
KAUFTEIL
  6
CONTINUOUS
 48
0.20000000298
100
AcDbLine
 10
-1198.561543233956
 20
69.18167160867
 30
0.0
 11
-1198.561543233956
 21
71.68167160867
 31
0.0
1001
ACAD
1000
TCW40_DEV_WIDTH
1002
{
1040
0.011811023578
1002
}
  0
LINE
  5
195
102
{ACAD_REACTORS
330
1CE
102
}
100
AcDbEntity
  8
KAUFTEIL
  6
GESTRICHELT
 48
0.20000000298
100
AcDbLine
 10
-1267.561543233956
 20
71.68167160867
 30
0.0
 11
-1267.561543233956
 21
79.18167160867
 31
0.0
1001
ACAD
1000
TCW40_DEV_WIDTH
1002
{
1040
0.011811023578
1002
}
  0
ARC
  5
196
102
{ACAD_REACTORS
330
1CE
102
}
100
AcDbEntity
  8
KAUFTEIL
  6
GESTRICHELT
 48
0.20000000298
100
AcDbCircle
 10
-1271.061543233956
 20
79.18167160867
 30
0.0
 40
3.5
100
AcDbArc
 50
0.0
 51
180.0
1001
ACAD
1000
TCW40_DEV_WIDTH
1002
{
1040
0.011811023578
1002
}
  0
LINE
  5
197
102
{ACAD_REACTORS
330
1CE
102
}
100
AcDbEntity
  8
KAUFTEIL
  6
GESTRICHELT
 48
0.20000000298
100
AcDbLine
 10
-1274.561543233956
 20
79.18167160867
 30
0.0
 11
-1274.561543233956
 21
71.68167160867
 31
0.0
1001
ACAD
1000
TCW40_DEV_WIDTH
1002
{
1040
0.011811023578
1002
}
  0
LINE
  5
198
102
{ACAD_REACTORS
330
1CE
102
}
100
AcDbEntity
  8
KAUFTEIL
  6
GESTRICHELT
 48
0.20000000298
100
AcDbLine
 10
-1207.561543233956
 20
71.68167160867
 30
0.0
 11
-1207.561543233956
 21
79.18167160867
 31
0.0
1001
ACAD
1000
TCW40_DEV_WIDTH
1002
{
1040
0.011811023578
1002
}
  0
ARC
  5
199
102
{ACAD_REACTORS
330
1CE
102
}
100
AcDbEntity
  8
KAUFTEIL
  6
GESTRICHELT
 48
0.20000000298
100
AcDbCircle
 10
-1211.061543233956
 20
79.18167160867
 30
0.0
 40
3.5
100
AcDbArc
 50
0.0
 51
180.0
1001
ACAD
1000
TCW40_DEV_WIDTH
1002
{
1040
0.011811023578
1002
}
  0
LINE
  5
19A
102
{ACAD_REACTORS
330
1CE
102
}
100
AcDbEntity
  8
KAUFTEIL
  6
GESTRICHELT
 48
0.20000000298
100
AcDbLine
 10
-1214.561543233956
 20
79.18167160867
 30
0.0
 11
-1214.561543233956
 21
71.68167160867
 31
0.0
1001
ACAD
1000
TCW40_DEV_WIDTH
1002
{
1040
0.011811023578
1002
}
  0
LINE
  5
19B
102
{ACAD_REACTORS
330
1CE
102
}
100
AcDbEntity
  8
KAUFTEIL
  6
CONTINUOUS
 48
0.20000000298
100
AcDbLine
 10
-1164.061543233956
 20
71.68167160867
 30
0.0
 11
-1164.061543233956
 21
83.68167160867
 31
0.0
1001
ACAD
1000
TCW40_DEV_WIDTH
1002
{
1040
0.011811023578
1002
}
  0
LINE
  5
19C
102
{ACAD_REACTORS
330
1CE
102
}
100
AcDbEntity
  8
KAUFTEIL
  6
CONTINUOUS
 48
0.20000000298
100
AcDbLine
 10
-1164.061543233956
 20
83.68167160867
 30
0.0
 11
-1213.204543233956
 21
83.68167160867
 31
0.0
1001
ACAD
1000
TCW40_DEV_WIDTH
1002
{
1040
0.011811023578
1002
}
  0
LINE
  5
19D
102
{ACAD_REACTORS
330
1CE
102
}
100
AcDbEntity
  8
KAUFTEIL
  6
GESTRICHELT
 48
0.20000000298
100
AcDbLine
 10
-1162.561543233956
 20
83.68167160867
 30
0.0
 11
-1187.561543233956
 21
83.68167160867
 31
0.0
1001
ACAD
1000
TCW40_DEV_WIDTH
1002
{
1040
0.011811023578
1002
}
  0
LINE
  5
19E
102
{ACAD_REACTORS
330
1CE
102
}
100
AcDbEntity
  8
KAUFTEIL
  6
GESTRICHELT
 48
0.20000000298
100
AcDbLine
 10
-1162.561543233956
 20
71.68167160867
 30
0.0
 11
-1162.561543233956
 21
83.68167160867
 31
0.0
1001
ACAD
1000
TCW40_DEV_WIDTH
1002
{
1040
0.011811023578
1002
}
  0
LINE
  5
19F
102
{ACAD_REACTORS
330
1CE
102
}
100
AcDbEntity
  8
KAUFTEIL
  6
CONTINUOUS
 48
0.20000000298
100
AcDbLine
 10
-1164.061543233956
 20
93.68167160867
 30
0.0
 11
-1291.061543233956
 21
93.68167160867
 31
0.0
1001
ACAD
1000
TCW40_DEV_WIDTH
1002
{
1040
0.011811023578
1002
}
  0
LINE
  5
1A0
102
{ACAD_REACTORS
330
1CE
102
}
100
AcDbEntity
  8
KAUFTEIL
  6
CONTINUOUS
 48
0.20000000298
100
AcDbLine
 10
-1159.061543233956
 20
71.68167160867
 30
0.0
 11
-1159.061543233956
 21
161.68167160867
 31
0.0
1001
ACAD
1000
TCW40_DEV_WIDTH
1002
{
1040
0.011811023578
1002
}
  0
LINE
  5
1A1
102
{ACAD_REACTORS
330
1CE
102
}
100
AcDbEntity
  8
KAUFTEIL
  6
CONTINUOUS
 48
0.20000000298
100
AcDbLine
 10
-1159.061543233956
 20
71.68167160867
 30
0.0
 11
-1158.561543233956
 21
71.68167160867
 31
0.0
1001
ACAD
1000
TCW40_DEV_WIDTH
1002
{
1040
0.011811023578
1002
}
  0
LINE
  5
1A2
102
{ACAD_REACTORS
330
1CE
102
}
100
AcDbEntity
  8
KAUFTEIL
  6
CONTINUOUS
 48
0.20000000298
100
AcDbLine
 10
-1159.061543233956
 20
161.68167160867
 30
0.0
 11
-1158.561543233956
 21
161.68167160867
 31
0.0
1001
ACAD
1000
TCW40_DEV_WIDTH
1002
{
1040
0.011811023578
1002
}
  0
LINE
  5
1A3
102
{ACAD_REACTORS
330
1CE
102
}
100
AcDbEntity
  8
KAUFTEIL
  6
STRICHPUNKT
 48
0.20000000298
100
AcDbLine
 10
-1158.561543233956
 20
116.68167160867
 30
0.0
 11
-1121.561543233956
 21
116.68167160867
 31
0.0
1001
ACAD
1000
TCW40_DEV_WIDTH
1002
{
1040
0.003937007859
1002
}
  0
LINE
  5
1A4
102
{ACAD_REACTORS
330
1CE
102
}
100
AcDbEntity
  8
KAUFTEIL
  6
CONTINUOUS
 48
0.20000000298
100
AcDbLine
 10
-1144.561543233956
 20
71.68167160867
 30
0.0
 11
-1158.561543233956
 21
71.68167160867
 31
0.0
1001
ACAD
1000
TCW40_DEV_WIDTH
1002
{
1040
0.011811023578
1002
}
  0
LINE
  5
1A5
102
{ACAD_REACTORS
330
1CE
102
}
100
AcDbEntity
  8
KAUFTEIL
  6
CONTINUOUS
 48
0.20000000298
100
AcDbLine
 10
-1158.561543233956
 20
71.68167160867
 30
0.0
 11
-1158.561543233956
 21
161.68167160867
 31
0.0
1001
ACAD
1000
TCW40_DEV_WIDTH
1002
{
1040
0.011811023578
1002
}
  0
LINE
  5
1A6
102
{ACAD_REACTORS
330
1CE
102
}
100
AcDbEntity
  8
KAUFTEIL
  6
CONTINUOUS
 48
0.20000000298
100
AcDbLine
 10
-1121.561543233956
 20
57.68167160867
 30
0.0
 11
-1144.561543233956
 21
57.68167160867
 31
0.0
1001
ACAD
1000
TCW40_DEV_WIDTH
1002
{
1040
0.011811023578
1002
}
  0
LINE
  5
1A7
102
{ACAD_REACTORS
330
1CE
102
}
100
AcDbEntity
  8
KAUFTEIL
  6
CONTINUOUS
 48
0.20000000298
100
AcDbLine
 10
-1144.561543233956
 20
57.68167160867
 30
0.0
 11
-1144.561543233956
 21
175.68167160867
 31
0.0
1001
ACAD
1000
TCW40_DEV_WIDTH
1002
{
1040
0.011811023578
1002
}
  0
LINE
  5
1A8
102
{ACAD_REACTORS
330
1CE
102
}
100
AcDbEntity
  8
KAUFTEIL
  6
CONTINUOUS
 48
0.20000000298
100
AcDbLine
 10
-1158.561543233956
 20
161.68167160867
 30
0.0
 11
-1144.561543233956
 21
161.68167160867
 31
0.0
1001
ACAD
1000
TCW40_DEV_WIDTH
1002
{
1040
0.011811023578
1002
}
  0
LINE
  5
1A9
102
{ACAD_REACTORS
330
1CE
102
}
100
AcDbEntity
  8
KAUFTEIL
  6
CONTINUOUS
 48
0.20000000298
100
AcDbLine
 10
-1121.561543233956
 20
175.68167160867
 30
0.0
 11
-1121.561543233956
 21
57.68167160867
 31
0.0
1001
ACAD
1000
TCW40_DEV_WIDTH
1002
{
1040
0.011811023578
1002
}
  0
LINE
  5
1AA
102
{ACAD_REACTORS
330
1CE
102
}
100
AcDbEntity
  8
KAUFTEIL
  6
CONTINUOUS
 48
0.20000000298
100
AcDbLine
 10
-1144.561543233956
 20
175.68167160867
 30
0.0
 11
-1121.561543233956
 21
175.68167160867
 31
0.0
1001
ACAD
1000
TCW40_DEV_WIDTH
1002
{
1040
0.011811023578
1002
}
  0
LINE
  5
1AB
102
{ACAD_REACTORS
330
1CE
102
}
100
AcDbEntity
  8
KAUFTEIL
  6
STRICHPUNKT
 48
0.20000000298
100
AcDbLine
 10
-1121.561543233956
 20
116.68167160867
 30
0.0
 11
-1052.874016771453
 21
116.68167160867
 31
0.0
1001
ACAD
1000
TCW40_DEV_WIDTH
1002
{
1040
0.003937007859
1002
}
  0
LINE
  5
1AC
102
{ACAD_REACTORS
330
1CE
102
}
100
AcDbEntity
  8
KAUFTEIL
  6
STRICHPUNKT
 48
0.20000000298
100
AcDbLine
 10
-1032.511197339447
 20
116.68167160867
 30
0.0
 11
-1010.061543233956
 21
116.68167160867
 31
0.0
1001
ACAD
1000
TCW40_DEV_WIDTH
1002
{
1040
0.003937007859
1002
}
  0
LINE
  5
1AD
102
{ACAD_REACTORS
330
1CE
102
}
100
AcDbEntity
  8
KAUFTEIL
  6
CONTINUOUS
 48
0.20000000298
100
AcDbLine
 10
-1121.561543233956
 20
47.68167160867
 30
0.0
 11
-1121.561543233956
 21
185.68167160867
 31
0.0
1001
ACAD
1000
TCW40_DEV_WIDTH
1002
{
1040
0.011811023578
1002
}
  0
LINE
  5
1AE
102
{ACAD_REACTORS
330
1CE
102
}
100
AcDbEntity
  8
KAUFTEIL
  6
CONTINUOUS
 48
0.20000000298
100
AcDbLine
 10
-1119.061543233956
 20
193.68167160867
 30
0.0
 11
-1119.061543233956
 21
176.14594660867
 31
0.0
1001
ACAD
1000
TCW40_DEV_WIDTH
1002
{
1040
0.011811023578
1002
}
  0
LINE
  5
1AF
102
{ACAD_REACTORS
330
1CE
102
}
100
AcDbEntity
  8
KAUFTEIL
  6
CONTINUOUS
 48
0.20000000298
100
AcDbLine
 10
-1119.061543233956
 20
176.14594660867
 30
0.0
 11
-1049.061543233956
 21
176.14594660867
 31
0.0
1001
ACAD
1000
TCW40_DEV_WIDTH
1002
{
1040
0.011811023578
1002
}
  0
LINE
  5
1B0
102
{ACAD_REACTORS
330
1CE
102
}
100
AcDbEntity
  8
KAUFTEIL
  6
CONTINUOUS
 48
0.20000000298
100
AcDbLine
 10
-1121.561543233956
 20
185.68167160867
 30
0.0
 11
-1119.061543233956
 21
185.68167160867
 31
0.0
1001
ACAD
1000
TCW40_DEV_WIDTH
1002
{
1040
0.011811023578
1002
}
  0
LINE
  5
1B1
102
{ACAD_REACTORS
330
1CE
102
}
100
AcDbEntity
  8
KAUFTEIL
  6
CONTINUOUS
 48
0.20000000298
100
AcDbLine
 10
-1049.061543233956
 20
193.68167160867
 30
0.0
 11
-1049.061543233956
 21
176.14594660867
 31
0.0
1001
ACAD
1000
TCW40_DEV_WIDTH
1002
{
1040
0.011811023578
1002
}
  0
LINE
  5
1B2
102
{ACAD_REACTORS
330
1CE
102
}
100
AcDbEntity
  8
KAUFTEIL
  6
GESTRICHELT
 48
0.20000000298
100
AcDbLine
 10
-1119.061543233956
 20
193.68167160867
 30
0.0
 11
-1049.061543233956
 21
193.68167160867
 31
0.0
1001
ACAD
1000
TCW40_DEV_WIDTH
1002
{
1040
0.011811023578
1002
}
  0
LINE
  5
1B3
102
{ACAD_REACTORS
330
1CE
102
}
100
AcDbEntity
  8
KAUFTEIL
  6
CONTINUOUS
 48
0.20000000298
100
AcDbLine
 10
-1010.061543233956
 20
185.68167160867
 30
0.0
 11
-1049.061543233956
 21
185.68167160867
 31
0.0
1001
ACAD
1000
TCW40_DEV_WIDTH
1002
{
1040
0.011811023578
1002
}
  0
LINE
  5
1B4
102
{ACAD_REACTORS
330
1CE
102
}
100
AcDbEntity
  8
KAUFTEIL
  6
CONTINUOUS
 48
0.20000000298
100
AcDbLine
 10
-1046.561543233956
 20
192.18167160867
 30
0.0
 11
-1121.561543233956
 21
192.18167160867
 31
0.0
1001
ACAD
1000
TCW40_DEV_WIDTH
1002
{
1040
0.011811023578
1002
}
  0
LINE
  5
1B5
102
{ACAD_REACTORS
330
1CE
102
}
100
AcDbEntity
  8
KAUFTEIL
  6
CONTINUOUS
 48
0.20000000298
100
AcDbLine
 10
-1121.561543233956
 20
192.18167160867
 30
0.0
 11
-1121.561543233956
 21
197.18167160867
 31
0.0
1001
ACAD
1000
TCW40_DEV_WIDTH
1002
{
1040
0.011811023578
1002
}
  0
LINE
  5
1B6
102
{ACAD_REACTORS
330
1CE
102
}
100
AcDbEntity
  8
KAUFTEIL
  6
CONTINUOUS
 48
0.20000000298
100
AcDbLine
 10
-1121.561543233956
 20
197.18167160867
 30
0.0
 11
-1046.561543233956
 21
197.18167160867
 31
0.0
1001
ACAD
1000
TCW40_DEV_WIDTH
1002
{
1040
0.011811023578
1002
}
  0
LINE
  5
1B7
102
{ACAD_REACTORS
330
1CE
102
}
100
AcDbEntity
  8
KAUFTEIL
  6
CONTINUOUS
 48
0.20000000298
100
AcDbLine
 10
-1046.561543233956
 20
197.18167160867
 30
0.0
 11
-1046.561543233956
 21
192.18167160867
 31
0.0
1001
ACAD
1000
TCW40_DEV_WIDTH
1002
{
1040
0.011811023578
1002
}
  0
LINE
  5
1B8
102
{ACAD_REACTORS
330
1CE
102
}
100
AcDbEntity
  8
KAUFTEIL
  6
CONTINUOUS
 48
0.20000000298
100
AcDbLine
 10
-1116.561543233956
 20
197.18167160867
 30
0.0
 11
-1116.561543233956
 21
225.18167160867
 31
0.0
1001
ACAD
1000
TCW40_DEV_WIDTH
1002
{
1040
0.011811023578
1002
}
  0
LINE
  5
1B9
102
{ACAD_REACTORS
330
1CE
102
}
100
AcDbEntity
  8
KAUFTEIL
  6
CONTINUOUS
 48
0.20000000298
100
AcDbLine
 10
-1116.561543233956
 20
225.18167160867
 30
0.0
 11
-1051.561543233956
 21
225.18167160867
 31
0.0
1001
ACAD
1000
TCW40_DEV_WIDTH
1002
{
1040
0.011811023578
1002
}
  0
LINE
  5
1BA
102
{ACAD_REACTORS
330
1CE
102
}
100
AcDbEntity
  8
KAUFTEIL
  6
CONTINUOUS
 48
0.20000000298
100
AcDbLine
 10
-1103.061543233956
 20
225.18167160867
 30
0.0
 11
-1103.061543233956
 21
197.18167160867
 31
0.0
1001
ACAD
1000
TCW40_DEV_WIDTH
1002
{
1040
0.011811023578
1002
}
  0
LINE
  5
1BB
102
{ACAD_REACTORS
330
1CE
102
}
100
AcDbEntity
  8
KAUFTEIL
  6
CONTINUOUS
 48
0.20000000298
100
AcDbLine
 10
-1065.061543233956
 20
225.18167160867
 30
0.0
 11
-1065.061543233956
 21
197.18167160867
 31
0.0
1001
ACAD
1000
TCW40_DEV_WIDTH
1002
{
1040
0.011811023578
1002
}
  0
LINE
  5
1BC
102
{ACAD_REACTORS
330
1CE
102
}
100
AcDbEntity
  8
KAUFTEIL
  6
CONTINUOUS
 48
0.20000000298
100
AcDbLine
 10
-1051.561543233956
 20
225.18167160867
 30
0.0
 11
-1051.561543233956
 21
197.18167160867
 31
0.0
1001
ACAD
1000
TCW40_DEV_WIDTH
1002
{
1040
0.011811023578
1002
}
  0
LINE
  5
1BD
102
{ACAD_REACTORS
330
1CE
102
}
100
AcDbEntity
  8
KAUFTEIL
  6
STRICHPUNKT
 48
0.20000000298
100
AcDbLine
 10
-1010.061543233956
 20
116.68167160867
 30
0.0
 11
-938.561543233956
 21
116.68167160867
 31
0.0
1001
ACAD
1000
TCW40_DEV_WIDTH
1002
{
1040
0.003937007859
1002
}
  0
ARC
  5
1BE
102
{ACAD_REACTORS
330
1CE
102
}
100
AcDbEntity
  8
KAUFTEIL
  6
CONTINUOUS
 48
0.20000000298
100
AcDbCircle
 10
-961.176588233956
 20
68.68167160867
 30
0.0
 40
21.0
100
AcDbArc
 50
-75.164888418161
 51
-20.924833
1001
ACAD
1000
TCW40_DEV_WIDTH
1002
{
1040
0.011811023578
1002
}
  0
LINE
  5
1BF
102
{ACAD_REACTORS
330
1CE
102
}
100
AcDbEntity
  8
KAUFTEIL
  6
CONTINUOUS
 48
0.20000000298
100
AcDbLine
 10
-1010.061543233956
 20
185.68167160867
 30
0.0
 11
-961.176588233956
 21
185.68167160867
 31
0.0
1001
ACAD
1000
TCW40_DEV_WIDTH
1002
{
1040
0.011811023578
1002
}
  0
LINE
  5
1C0
102
{ACAD_REACTORS
330
1CE
102
}
100
AcDbEntity
  8
KAUFTEIL
  6
CONTINUOUS
 48
0.20000000298
100
AcDbLine
 10
-938.561543233956
 20
61.18167160867
 30
0.0
 11
-941.561543233956
 21
61.18167160867
 31
0.0
1001
ACAD
1000
TCW40_DEV_WIDTH
1002
{
1040
0.011811023578
1002
}
  0
ARC
  5
1C1
102
{ACAD_REACTORS
330
1CE
102
}
100
AcDbEntity
  8
KAUFTEIL
  6
CONTINUOUS
 48
0.20000000298
100
AcDbCircle
 10
-961.176588233956
 20
164.68167160867
 30
0.0
 40
21.0
100
AcDbArc
 50
20.924833
 51
90.0
1001
ACAD
1000
TCW40_DEV_WIDTH
1002
{
1040
0.011811023578
1002
}
  0
LINE
  5
1C2
102
{ACAD_REACTORS
330
1CE
102
}
100
AcDbEntity
  8
KAUFTEIL
  6
CONTINUOUS
 48
0.20000000298
100
AcDbLine
 10
-938.561543233956
 20
172.18167160867
 30
0.0
 11
-938.561543233956
 21
61.18167160867
 31
0.0
1001
ACAD
1000
TCW40_DEV_WIDTH
1002
{
1040
0.011811023578
1002
}
  0
LINE
  5
1C3
102
{ACAD_REACTORS
330
1CE
102
}
100
AcDbEntity
  8
KAUFTEIL
  6
CONTINUOUS
 48
0.20000000298
100
AcDbLine
 10
-941.561543233956
 20
172.18167160867
 30
0.0
 11
-938.561543233956
 21
172.18167160867
 31
0.0
1001
ACAD
1000
TCW40_DEV_WIDTH
1002
{
1040
0.011811023578
1002
}
  0
LINE
  5
1C4
102
{ACAD_REACTORS
330
1CE
102
}
100
AcDbEntity
  8
KAUFTEIL
  6
STRICHPUNKT
 48
0.20000000298
100
AcDbLine
 10
-1241.061543233956
 20
164.18167160867
 30
0.0
 11
-1241.061543233956
 21
166.68167160867
 31
0.0
1001
ACAD
1000
TCW40_DEV_WIDTH
1002
{
1040
0.003937007859
1002
}
  0
LINE
  5
1C5
102
{ACAD_REACTORS
330
1CE
102
}
100
AcDbEntity
  8
KAUFTEIL
  6
STRICHPUNKT
 48
0.20000000298
100
AcDbLine
 10
-1241.061543233956
 20
69.18167160867
 30
0.0
 11
-1241.061543233956
 21
66.68167160867
 31
0.0
1001
ACAD
1000
TCW40_DEV_WIDTH
1002
{
1040
0.003937007859
1002
}
  0
LINE
  5
1C6
102
{ACAD_REACTORS
330
1CE
102
}
100
AcDbEntity
  8
KAUFTEIL
  6
CONTINUOUS
 48
0.20000000298
100
AcDbLine
 10
-1256.061543233956
 20
164.18167160867
 30
0.0
 11
-1256.061543233956
 21
166.68167160867
 31
0.0
1001
ACAD
1000
TCW40_DEV_WIDTH
1002
{
1040
0.011811023578
1002
}
  0
LINE
  5
1C7
102
{ACAD_REACTORS
330
1CE
102
}
100
AcDbEntity
  8
KAUFTEIL
  6
CONTINUOUS
 48
0.20000000298
100
AcDbLine
 10
-1256.061543233956
 20
166.68167160867
 30
0.0
 11
-1226.061543233956
 21
166.68167160867
 31
0.0
1001
ACAD
1000
TCW40_DEV_WIDTH
1002
{
1040
0.011811023578
1002
}
  0
LINE
  5
1C8
102
{ACAD_REACTORS
330
1CE
102
}
100
AcDbEntity
  8
KAUFTEIL
  6
CONTINUOUS
 48
0.20000000298
100
AcDbLine
 10
-1226.061543233956
 20
166.68167160867
 30
0.0
 11
-1226.061543233956
 21
164.18167160867
 31
0.0
1001
ACAD
1000
TCW40_DEV_WIDTH
1002
{
1040
0.011811023578
1002
}
  0
LINE
  5
1C9
102
{ACAD_REACTORS
330
1CE
102
}
100
AcDbEntity
  8
KAUFTEIL
  6
CONTINUOUS
 48
0.20000000298
100
AcDbLine
 10
-1256.061543233956
 20
66.68167160867
 30
0.0
 11
-1256.061543233956
 21
69.18167160867
 31
0.0
1001
ACAD
1000
TCW40_DEV_WIDTH
1002
{
1040
0.011811023578
1002
}
  0
LINE
  5
1CA
102
{ACAD_REACTORS
330
1CE
102
}
100
AcDbEntity
  8
KAUFTEIL
  6
CONTINUOUS
 48
0.20000000298
100
AcDbLine
 10
-1226.061543233956
 20
66.68167160867
 30
0.0
 11
-1256.061543233956
 21
66.68167160867
 31
0.0
1001
ACAD
1000
TCW40_DEV_WIDTH
1002
{
1040
0.011811023578
1002
}
  0
LINE
  5
1CB
102
{ACAD_REACTORS
330
1CE
102
}
100
AcDbEntity
  8
KAUFTEIL
  6
CONTINUOUS
 48
0.20000000298
100
AcDbLine
 10
-1226.061543233956
 20
69.18167160867
 30
0.0
 11
-1226.061543233956
 21
66.68167160867
 31
0.0
1001
ACAD
1000
TCW40_DEV_WIDTH
1002
{
1040
0.011811023578
1002
}
  0
LINE
  5
1CC
102
{ACAD_REACTORS
330
1CE
102
}
100
AcDbEntity
  8
KAUFTEIL
  6
CONTINUOUS
 48
0.20000000298
100
AcDbLine
 10
-1031.561543233955
 20
47.68167160867
 30
0.0
 11
-1121.561543233956
 21
47.68167160867
 31
0.0
1001
ACAD
1000
TCW40_DEV_WIDTH
1002
{
1040
0.011811023578
1002
}
  0
LINE
  5
1CD
102
{ACAD_REACTORS
330
1CE
102
}
100
AcDbEntity
  8
KAUFTEIL
  6
CONTINUOUS
 48
0.20000000298
100
AcDbLine
 10
-1010.061543233956
 20
48.381671608657
 30
0.0
 11
-1010.061543233956
 21
185.68167160867
 31
0.0
1001
ACAD
1000
TCW40_DEV_WIDTH
1002
{
1040
0.011811023578
1002
}
  0
LINE
  5
1CF
102
{ACAD_REACTORS
330
1DA
102
}
100
AcDbEntity
  8
NORMTEILE
  6
CONTINUOUS
 48
0.300000011921
100
AcDbLine
 10
-938.061543233955
 20
-40.618328391343
 30
0.0
 11
-931.061543233955
 21
-40.618328391343
 31
0.0
1001
ACAD
1000
TCW40_DEV_WIDTH
1002
{
1040
0.011811023578
1002
}
1001
TCAD
1000
TCW_ATTRIBUTE
1002
{
1000
Linie
1002
}
  0
LINE
  5
1D0
102
{ACAD_REACTORS
330
1DA
102
}
100
AcDbEntity
  8
NORMTEILE
  6
CONTINUOUS
 48
0.300000011921
100
AcDbLine
 10
-938.061543233955
 20
-35.618328391343
 30
0.0
 11
-931.061543233955
 21
-35.618328391343
 31
0.0
1001
ACAD
1000
TCW40_DEV_WIDTH
1002
{
1040
0.011811023578
1002
}
1001
TCAD
1000
TCW_ATTRIBUTE
1002
{
1000
Linie
1002
}
  0
LINE
  5
1D1
102
{ACAD_REACTORS
330
1DA
102
}
100
AcDbEntity
  8
NORMTEILE
  6
CONTINUOUS
 48
0.300000011921
100
AcDbLine
 10
-940.331543233955
 20
-36.226573058162
 30
0.0
 11
-940.331543233955
 21
-40.010083724524
 31
0.0
1001
ACAD
1000
TCW40_DEV_WIDTH
1002
{
1040
0.011811023578
1002
}
1001
TCAD
1000
TCW_ATTRIBUTE
1002
{
1000
Linie
1002
}
  0
LINE
  5
1D2
102
{ACAD_REACTORS
330
1DA
102
}
100
AcDbEntity
  8
NORMTEILE
  6
CONTINUOUS
 48
0.300000011921
100
AcDbLine
 10
-928.791543233955
 20
-36.226573058162
 30
0.0
 11
-928.791543233955
 21
-40.010083724524
 31
0.0
1001
ACAD
1000
TCW40_DEV_WIDTH
1002
{
1040
0.011811023578
1002
}
1001
TCAD
1000
TCW_ATTRIBUTE
1002
{
1000
Linie
1002
}
  0
LINE
  5
1D3
102
{ACAD_REACTORS
330
1DA
102
}
100
AcDbEntity
  8
NORMTEILE
  6
CONTINUOUS
 48
0.300000011921
100
AcDbLine
 10
-938.061543233955
 20
-35.618328391343
 30
0.0
 11
-940.331543233955
 21
-36.226573058162
 31
0.0
1001
ACAD
1000
TCW40_DEV_WIDTH
1002
{
1040
0.011811023578
1002
}
1001
TCAD
1000
TCW_ATTRIBUTE
1002
{
1000
Linie
1002
}
  0
LINE
  5
1D4
102
{ACAD_REACTORS
330
1DA
102
}
100
AcDbEntity
  8
NORMTEILE
  6
CONTINUOUS
 48
0.300000011921
100
AcDbLine
 10
-938.061543233955
 20
-40.618328391343
 30
0.0
 11
-940.331543233955
 21
-40.010083724524
 31
0.0
1001
ACAD
1000
TCW40_DEV_WIDTH
1002
{
1040
0.011811023578
1002
}
1001
TCAD
1000
TCW_ATTRIBUTE
1002
{
1000
Linie
1002
}
  0
LINE
  5
1D5
102
{ACAD_REACTORS
330
1DA
102
}
100
AcDbEntity
  8
NORMTEILE
  6
CONTINUOUS
 48
0.300000011921
100
AcDbLine
 10
-931.061543233955
 20
-35.618328391343
 30
0.0
 11
-928.791543233955
 21
-36.226573058162
 31
0.0
1001
ACAD
1000
TCW40_DEV_WIDTH
1002
{
1040
0.011811023578
1002
}
1001
TCAD
1000
TCW_ATTRIBUTE
1002
{
1000
Linie
1002
}
  0
LINE
  5
1D6
102
{ACAD_REACTORS
330
1DA
102
}
100
AcDbEntity
  8
NORMTEILE
  6
CONTINUOUS
 48
0.300000011921
100
AcDbLine
 10
-931.061543233955
 20
-40.618328391343
 30
0.0
 11
-928.791543233955
 21
-40.010083724524
 31
0.0
1001
ACAD
1000
TCW40_DEV_WIDTH
1002
{
1040
0.011811023578
1002
}
1001
TCAD
1000
TCW_ATTRIBUTE
1002
{
1000
Linie
1002
}
  0
LINE
  5
1D7
102
{ACAD_REACTORS
330
1DA
102
}
100
AcDbEntity
  8
NORMTEILE
  6
CONTINUOUS
 48
0.300000011921
100
AcDbLine
 10
-931.676543233956
 20
-35.618328391343
 30
0.0
 11
-931.676543233956
 21
-40.618328391343
 31
0.0
1001
ACAD
1000
TCW40_DEV_WIDTH
1002
{
1040
0.011811023578
1002
}
1001
TCAD
1000
TCW_ATTRIBUTE
1002
{
1000
Linie
1002
}
  0
LINE
  5
1D8
102
{ACAD_REACTORS
330
1DA
102
}
100
AcDbEntity
  8
NORMTEILE
  6
CONTINUOUS
 48
0.300000011921
100
AcDbLine
 10
-937.446543233955
 20
-35.618328391343
 30
0.0
 11
-937.446543233955
 21
-40.618328391343
 31
0.0
1001
ACAD
1000
TCW40_DEV_WIDTH
1002
{
1040
0.011811023578
1002
}
1001
TCAD
1000
TCW_ATTRIBUTE
1002
{
1000
Linie
1002
}
  0
LINE
  5
1D9
102
{ACAD_REACTORS
330
1DA
102
}
100
AcDbEntity
  8
NORMTEILE
  6
STRICHPUNKT
 48
0.300000011921
100
AcDbLine
 10
-934.561543233955
 20
-35.618328391343
 30
0.0
 11
-934.561543233955
 21
-40.618328391343
 31
0.0
1001
ACAD
1000
TCW40_DEV_WIDTH
1002
{
1040
0.003937007859
1002
}
1001
TCAD
1000
TCW_ATTRIBUTE
1002
{
1000
Linie
1002
}
  0
LINE
  5
1DB
102
{ACAD_REACTORS
330
1EC
102
}
100
AcDbEntity
  8
KAUFTEIL
  6
CONTINUOUS
 48
0.300000011921
100
AcDbLine
 10
-1267.061543233956
 20
50.38167160867
 30
0.0
 11
-1264.561543233956
 21
56.38167160867
 31
0.0
1001
ACAD
1000
TCW40_DEV_WIDTH
1002
{
1040
0.011811023578
1002
}
1001
TCAD
1000
TCW_ATTRIBUTE
1002
{
1000
Linie
1002
}
  0
LINE
  5
1DC
102
{ACAD_REACTORS
330
1EC
102
}
100
AcDbEntity
  8
KAUFTEIL
  6
CONTINUOUS
 48
0.300000011921
100
AcDbLine
 10
-1255.311543233956
 20
56.38167160867
 30
0.0
 11
-1255.311543233956
 21
66.68167160867
 31
0.0
1001
ACAD
1000
TCW40_DEV_WIDTH
1002
{
1040
0.011811023578
1002
}
1001
TCAD
1000
TCW_ATTRIBUTE
1002
{
1000
Linie
1002
}
  0
LINE
  5
1DD
102
{ACAD_REACTORS
330
1EC
102
}
100
AcDbEntity
  8
KAUFTEIL
  6
CONTINUOUS
 48
0.300000011921
100
AcDbLine
 10
-1255.311543233956
 20
66.68167160867
 30
0.0
 11
-1241.061543233956
 21
66.68167160867
 31
0.0
1001
ACAD
1000
TCW40_DEV_WIDTH
1002
{
1040
0.011811023578
1002
}
1001
TCAD
1000
TCW_ATTRIBUTE
1002
{
1000
Linie
1002
}
  0
LINE
  5
1DE
102
{ACAD_REACTORS
330
1EC
102
}
100
AcDbEntity
  8
KAUFTEIL
  6
CONTINUOUS
 48
0.300000011921
100
AcDbLine
 10
-1241.061543233956
 20
56.38167160867
 30
0.0
 11
-1264.561543233956
 21
56.38167160867
 31
0.0
1001
ACAD
1000
TCW40_DEV_WIDTH
1002
{
1040
0.011811023578
1002
}
1001
TCAD
1000
TCW_ATTRIBUTE
1002
{
1000
Linie
1002
}
  0
LINE
  5
1DF
102
{ACAD_REACTORS
330
1EC
102
}
100
AcDbEntity
  8
KAUFTEIL
  6
CONTINUOUS
 48
0.300000011921
100
AcDbLine
 10
-1241.061543233956
 20
50.38167160867
 30
0.0
 11
-1274.561543233956
 21
50.38167160867
 31
0.0
1001
ACAD
1000
TCW40_DEV_WIDTH
1002
{
1040
0.011811023578
1002
}
1001
TCAD
1000
TCW_ATTRIBUTE
1002
{
1000
Linie
1002
}
  0
LINE
  5
1E0
102
{ACAD_REACTORS
330
1EC
102
}
100
AcDbEntity
  8
KAUFTEIL
  6
CONTINUOUS
 48
0.300000011921
100
AcDbLine
 10
-1241.061543233956
 20
46.38167160867
 30
0.0
 11
-1274.561543233956
 21
46.38167160867
 31
0.0
1001
ACAD
1000
TCW40_DEV_WIDTH
1002
{
1040
0.011811023578
1002
}
1001
TCAD
1000
TCW_ATTRIBUTE
1002
{
1000
Linie
1002
}
  0
LINE
  5
1E1
102
{ACAD_REACTORS
330
1EC
102
}
100
AcDbEntity
  8
KAUFTEIL
  6
CONTINUOUS
 48
0.300000011921
100
AcDbLine
 10
-1215.061543233956
 20
50.38167160867
 30
0.0
 11
-1217.561543233956
 21
56.38167160867
 31
0.0
1001
ACAD
1000
TCW40_DEV_WIDTH
1002
{
1040
0.011811023578
1002
}
1001
TCAD
1000
TCW_ATTRIBUTE
1002
{
1000
Linie
1002
}
  0
LINE
  5
1E2
102
{ACAD_REACTORS
330
1EC
102
}
100
AcDbEntity
  8
KAUFTEIL
  6
CONTINUOUS
 48
0.300000011921
100
AcDbLine
 10
-1226.811543233956
 20
56.38167160867
 30
0.0
 11
-1226.811543233956
 21
66.68167160867
 31
0.0
1001
ACAD
1000
TCW40_DEV_WIDTH
1002
{
1040
0.011811023578
1002
}
1001
TCAD
1000
TCW_ATTRIBUTE
1002
{
1000
Linie
1002
}
  0
LINE
  5
1E3
102
{ACAD_REACTORS
330
1EC
102
}
100
AcDbEntity
  8
KAUFTEIL
  6
CONTINUOUS
 48
0.300000011921
100
AcDbLine
 10
-1226.811543233956
 20
66.68167160867
 30
0.0
 11
-1241.061543233956
 21
66.68167160867
 31
0.0
1001
ACAD
1000
TCW40_DEV_WIDTH
1002
{
1040
0.011811023578
1002
}
1001
TCAD
1000
TCW_ATTRIBUTE
1002
{
1000
Linie
1002
}
  0
LINE
  5
1E4
102
{ACAD_REACTORS
330
1EC
102
}
100
AcDbEntity
  8
KAUFTEIL
  6
CONTINUOUS
 48
0.300000011921
100
AcDbLine
 10
-1241.061543233956
 20
56.38167160867
 30
0.0
 11
-1217.561543233956
 21
56.38167160867
 31
0.0
1001
ACAD
1000
TCW40_DEV_WIDTH
1002
{
1040
0.011811023578
1002
}
1001
TCAD
1000
TCW_ATTRIBUTE
1002
{
1000
Linie
1002
}
  0
LINE
  5
1E5
102
{ACAD_REACTORS
330
1EC
102
}
100
AcDbEntity
  8
KAUFTEIL
  6
CONTINUOUS
 48
0.300000011921
100
AcDbLine
 10
-1241.061543233956
 20
50.38167160867
 30
0.0
 11
-1207.561543233956
 21
50.38167160867
 31
0.0
1001
ACAD
1000
TCW40_DEV_WIDTH
1002
{
1040
0.011811023578
1002
}
1001
TCAD
1000
TCW_ATTRIBUTE
1002
{
1000
Linie
1002
}
  0
LINE
  5
1E6
102
{ACAD_REACTORS
330
1EC
102
}
100
AcDbEntity
  8
KAUFTEIL
  6
CONTINUOUS
 48
0.300000011921
100
AcDbLine
 10
-1241.061543233956
 20
46.38167160867
 30
0.0
 11
-1207.561543233956
 21
46.38167160867
 31
0.0
1001
ACAD
1000
TCW40_DEV_WIDTH
1002
{
1040
0.011811023578
1002
}
1001
TCAD
1000
TCW_ATTRIBUTE
1002
{
1000
Linie
1002
}
  0
LINE
  5
1E7
102
{ACAD_REACTORS
330
1EC
102
}
100
AcDbEntity
  8
KAUFTEIL
  6
STRICHPUNKT
 48
0.300000011921
100
AcDbLine
 10
-1241.061543233956
 20
40.38167160867
 30
0.0
 11
-1241.061543233956
 21
66.68167160867
 31
0.0
1001
ACAD
1000
TCW40_DEV_WIDTH
1002
{
1040
0.003937007859
1002
}
1001
TCAD
1000
TCW_ATTRIBUTE
1002
{
1000
Linie
1002
}
  0
LINE
  5
1E8
102
{ACAD_REACTORS
330
1EC
102
}
100
AcDbEntity
  8
KAUFTEIL
  6
CONTINUOUS
 48
0.300000011921
100
AcDbLine
 10
-1274.561543233956
 20
46.38167160867
 30
0.0
 11
-1274.561543233956
 21
50.38167160867
 31
0.0
1001
ACAD
1000
TCW40_DEV_WIDTH
1002
{
1040
0.011811023578
1002
}
1001
TCAD
1000
TCW_ATTRIBUTE
1002
{
1000
Linie
1002
}
  0
LINE
  5
1E9
102
{ACAD_REACTORS
330
1EC
102
}
100
AcDbEntity
  8
KAUFTEIL
  6
CONTINUOUS
 48
0.300000011921
100
AcDbLine
 10
-1207.561543233956
 20
46.38167160867
 30
0.0
 11
-1207.561543233956
 21
50.38167160867
 31
0.0
1001
ACAD
1000
TCW40_DEV_WIDTH
1002
{
1040
0.011811023578
1002
}
1001
TCAD
1000
TCW_ATTRIBUTE
1002
{
1000
Linie
1002
}
  0
LINE
  5
1EA
102
{ACAD_REACTORS
330
1EC
102
}
100
AcDbEntity
  8
KAUFTEIL
  6
STRICHPUNKT
 48
0.300000011921
100
AcDbLine
 10
-1274.561543233956
 20
48.38167160867
 30
0.0
 11
-1241.061543233956
 21
48.38167160867
 31
0.0
1001
ACAD
1000
TCW40_DEV_WIDTH
1002
{
1040
0.003937007859
1002
}
1001
TCAD
1000
TCW_ATTRIBUTE
1002
{
1000
Linie
1002
}
  0
LINE
  5
1EB
102
{ACAD_REACTORS
330
1EC
102
}
100
AcDbEntity
  8
KAUFTEIL
  6
STRICHPUNKT
 48
0.300000011921
100
AcDbLine
 10
-1207.561543233956
 20
48.38167160867
 30
0.0
 11
-1241.061543233956
 21
48.38167160867
 31
0.0
1001
ACAD
1000
TCW40_DEV_WIDTH
1002
{
1040
0.003937007859
1002
}
1001
TCAD
1000
TCW_ATTRIBUTE
1002
{
1000
Linie
1002
}
  0
LINE
  5
1ED
102
{ACAD_REACTORS
330
1FA
102
}
100
AcDbEntity
  8
KAUFTEIL
  6
CONTINUOUS
 48
0.300000011921
100
AcDbLine
 10
-1264.561543233956
 20
-39.61832839133
 30
0.0
 11
-1267.061543233956
 21
-33.61832839133
 31
0.0
1001
ACAD
1000
TCW40_DEV_WIDTH
1002
{
1040
0.011811023578
1002
}
1001
TCAD
1000
TCW_ATTRIBUTE
1002
{
1000
Linie
1002
}
  0
LINE
  5
1EE
102
{ACAD_REACTORS
330
1FA
102
}
100
AcDbEntity
  8
KAUFTEIL
  6
CONTINUOUS
 48
0.300000011921
100
AcDbLine
 10
-1241.061543233956
 20
-29.61832839133
 30
0.0
 11
-1274.561543233956
 21
-29.61832839133
 31
0.0
1001
ACAD
1000
TCW40_DEV_WIDTH
1002
{
1040
0.011811023578
1002
}
1001
TCAD
1000
TCW_ATTRIBUTE
1002
{
1000
Linie
1002
}
  0
LINE
  5
1EF
102
{ACAD_REACTORS
330
1FA
102
}
100
AcDbEntity
  8
KAUFTEIL
  6
CONTINUOUS
 48
0.300000011921
100
AcDbLine
 10
-1241.061543233956
 20
-33.61832839133
 30
0.0
 11
-1274.561543233956
 21
-33.61832839133
 31
0.0
1001
ACAD
1000
TCW40_DEV_WIDTH
1002
{
1040
0.011811023578
1002
}
1001
TCAD
1000
TCW_ATTRIBUTE
1002
{
1000
Linie
1002
}
  0
LINE
  5
1F0
102
{ACAD_REACTORS
330
1FA
102
}
100
AcDbEntity
  8
KAUFTEIL
  6
CONTINUOUS
 48
0.300000011921
100
AcDbLine
 10
-1241.061543233956
 20
-39.61832839133
 30
0.0
 11
-1264.561543233956
 21
-39.61832839133
 31
0.0
1001
ACAD
1000
TCW40_DEV_WIDTH
1002
{
1040
0.011811023578
1002
}
1001
TCAD
1000
TCW_ATTRIBUTE
1002
{
1000
Linie
1002
}
  0
LINE
  5
1F1
102
{ACAD_REACTORS
330
1FA
102
}
100
AcDbEntity
  8
KAUFTEIL
  6
CONTINUOUS
 48
0.300000011921
100
AcDbLine
 10
-1217.561543233956
 20
-39.61832839133
 30
0.0
 11
-1215.061543233956
 21
-33.61832839133
 31
0.0
1001
ACAD
1000
TCW40_DEV_WIDTH
1002
{
1040
0.011811023578
1002
}
1001
TCAD
1000
TCW_ATTRIBUTE
1002
{
1000
Linie
1002
}
  0
LINE
  5
1F2
102
{ACAD_REACTORS
330
1FA
102
}
100
AcDbEntity
  8
KAUFTEIL
  6
CONTINUOUS
 48
0.300000011921
100
AcDbLine
 10
-1241.061543233956
 20
-29.61832839133
 30
0.0
 11
-1207.561543233956
 21
-29.61832839133
 31
0.0
1001
ACAD
1000
TCW40_DEV_WIDTH
1002
{
1040
0.011811023578
1002
}
1001
TCAD
1000
TCW_ATTRIBUTE
1002
{
1000
Linie
1002
}
  0
LINE
  5
1F3
102
{ACAD_REACTORS
330
1FA
102
}
100
AcDbEntity
  8
KAUFTEIL
  6
CONTINUOUS
 48
0.300000011921
100
AcDbLine
 10
-1241.061543233956
 20
-33.61832839133
 30
0.0
 11
-1207.561543233956
 21
-33.61832839133
 31
0.0
1001
ACAD
1000
TCW40_DEV_WIDTH
1002
{
1040
0.011811023578
1002
}
1001
TCAD
1000
TCW_ATTRIBUTE
1002
{
1000
Linie
1002
}
  0
LINE
  5
1F4
102
{ACAD_REACTORS
330
1FA
102
}
100
AcDbEntity
  8
KAUFTEIL
  6
CONTINUOUS
 48
0.300000011921
100
AcDbLine
 10
-1241.061543233956
 20
-39.61832839133
 30
0.0
 11
-1217.561543233956
 21
-39.61832839133
 31
0.0
1001
ACAD
1000
TCW40_DEV_WIDTH
1002
{
1040
0.011811023578
1002
}
1001
TCAD
1000
TCW_ATTRIBUTE
1002
{
1000
Linie
1002
}
  0
LINE
  5
1F5
102
{ACAD_REACTORS
330
1FA
102
}
100
AcDbEntity
  8
KAUFTEIL
  6
STRICHPUNKT
 48
0.300000011921
100
AcDbLine
 10
-1241.061543233956
 20
-39.61832839133
 30
0.0
 11
-1241.061543233956
 21
-13.31832839133
 31
0.0
1001
ACAD
1000
TCW40_DEV_WIDTH
1002
{
1040
0.003937007859
1002
}
1001
TCAD
1000
TCW_ATTRIBUTE
1002
{
1000
Linie
1002
}
  0
LINE
  5
1F6
102
{ACAD_REACTORS
330
1FA
102
}
100
AcDbEntity
  8
KAUFTEIL
  6
CONTINUOUS
 48
0.300000011921
100
AcDbLine
 10
-1274.561543233956
 20
-33.61832839133
 30
0.0
 11
-1274.561543233956
 21
-29.61832839133
 31
0.0
1001
ACAD
1000
TCW40_DEV_WIDTH
1002
{
1040
0.011811023578
1002
}
1001
TCAD
1000
TCW_ATTRIBUTE
1002
{
1000
Linie
1002
}
  0
LINE
  5
1F7
102
{ACAD_REACTORS
330
1FA
102
}
100
AcDbEntity
  8
KAUFTEIL
  6
CONTINUOUS
 48
0.300000011921
100
AcDbLine
 10
-1207.561543233956
 20
-33.61832839133
 30
0.0
 11
-1207.561543233956
 21
-29.61832839133
 31
0.0
1001
ACAD
1000
TCW40_DEV_WIDTH
1002
{
1040
0.011811023578
1002
}
1001
TCAD
1000
TCW_ATTRIBUTE
1002
{
1000
Linie
1002
}
  0
LINE
  5
1F8
102
{ACAD_REACTORS
330
1FA
102
}
100
AcDbEntity
  8
KAUFTEIL
  6
STRICHPUNKT
 48
0.300000011921
100
AcDbLine
 10
-1274.561543233956
 20
-31.61832839133
 30
0.0
 11
-1241.061543233956
 21
-31.61832839133
 31
0.0
1001
ACAD
1000
TCW40_DEV_WIDTH
1002
{
1040
0.003937007859
1002
}
1001
TCAD
1000
TCW_ATTRIBUTE
1002
{
1000
Linie
1002
}
  0
LINE
  5
1F9
102
{ACAD_REACTORS
330
1FA
102
}
100
AcDbEntity
  8
KAUFTEIL
  6
STRICHPUNKT
 48
0.300000011921
100
AcDbLine
 10
-1207.561543233956
 20
-31.61832839133
 30
0.0
 11
-1241.061543233956
 21
-31.61832839133
 31
0.0
1001
ACAD
1000
TCW40_DEV_WIDTH
1002
{
1040
0.003937007859
1002
}
1001
TCAD
1000
TCW_ATTRIBUTE
1002
{
1000
Linie
1002
}
  0
CIRCLE
  5
1FB
102
{ACAD_REACTORS
330
1FF
102
}
100
AcDbEntity
  8
NORMTEILE
  6
CONTINUOUS
100
AcDbCircle
 10
-997.56154411515
 20
-11.618331324828
 30
0.0
 40
4.9985
1001
ACAD
1000
TCW40_DEV_WIDTH
1002
{
1040
0.011811023578
1002
}
1001
TCAD
1000
TCW_ATTRIBUTE
1002
{
1000
Kreis / Bogen
1002
}
  0
LWPOLYLINE
  5
1FC
102
{ACAD_REACTORS
330
1FF
102
}
100
AcDbEntity
  8
NORMTEILE
  6
CONTINUOUS
 48
0.20000000298
100
AcDbPolyline
 90
        6
 70
           1
 10
-997.561543233955
 20
-14.534881570113
 10
-1000.087349625363
 20
-13.076606570113
 10
-1000.087349625363
 20
-10.160056570113
 10
-997.561543233955
 20
-8.701781570113
 10
-995.035736842548
 20
-10.160056570113
 10
-995.035736842548
 20
-13.076606570113
1001
ACAD
1000
TCW40_DEV_WIDTH
1002
{
1040
0.011811023578
1002
}
1001
TCAD
1000
TCW_ATTRIBUTE
1002
{
1000
Linie
1002
}
  0
LINE
  5
1FD
102
{ACAD_REACTORS
330
1FF
102
}
100
AcDbEntity
  8
NORMTEILE
  6
STRICHPUNKT
 48
0.20000000298
100
AcDbLine
 10
-992.56304411515
 20
-11.618332206023
 30
0.0
 11
-1002.56004411515
 21
-11.618332206023
 31
0.0
1001
ACAD
1000
TCW40_DEV_WIDTH
1002
{
1040
0.003937007859
1002
}
1001
TCAD
1000
TCW_ATTRIBUTE
1002
{
1000
Linie
1002
}
  0
LINE
  5
1FE
102
{ACAD_REACTORS
330
1FF
102
}
100
AcDbEntity
  8
NORMTEILE
  6
STRICHPUNKT
 48
0.20000000298
100
AcDbLine
 10
-997.561543233955
 20
-6.619831324828
 30
0.0
 11
-997.561543233955
 21
-16.616831324828
 31
0.0
1001
ACAD
1000
TCW40_DEV_WIDTH
1002
{
1040
0.003937007859
1002
}
1001
TCAD
1000
TCW_ATTRIBUTE
1002
{
1000
Linie
1002
}
  0
CIRCLE
  5
200
102
{ACAD_REACTORS
330
204
102
}
100
AcDbEntity
  8
NORMTEILE
  6
CONTINUOUS
100
AcDbCircle
 10
-1021.56154411515
 20
-11.618331324829
 30
0.0
 40
4.9985
1001
ACAD
1000
TCW40_DEV_WIDTH
1002
{
1040
0.011811023578
1002
}
1001
TCAD
1000
TCW_ATTRIBUTE
1002
{
1000
Kreis / Bogen
1002
}
  0
LWPOLYLINE
  5
201
102
{ACAD_REACTORS
330
204
102
}
100
AcDbEntity
  8
NORMTEILE
  6
CONTINUOUS
 48
0.20000000298
100
AcDbPolyline
 90
        6
 70
           1
 10
-1021.561543233955
 20
-14.534881570113
 10
-1024.087349625362
 20
-13.076606570114
 10
-1024.087349625362
 20
-10.160056570113
 10
-1021.561543233955
 20
-8.701781570113
 10
-1019.035736842547
 20
-10.160056570113
 10
-1019.035736842547
 20
-13.076606570114
1001
ACAD
1000
TCW40_DEV_WIDTH
1002
{
1040
0.011811023578
1002
}
1001
TCAD
1000
TCW_ATTRIBUTE
1002
{
1000
Linie
1002
}
  0
LINE
  5
202
102
{ACAD_REACTORS
330
204
102
}
100
AcDbEntity
  8
NORMTEILE
  6
STRICHPUNKT
 48
0.20000000298
100
AcDbLine
 10
-1016.56304411515
 20
-11.618332206023
 30
0.0
 11
-1026.56004411515
 21
-11.618332206023
 31
0.0
1001
ACAD
1000
TCW40_DEV_WIDTH
1002
{
1040
0.003937007859
1002
}
1001
TCAD
1000
TCW_ATTRIBUTE
1002
{
1000
Linie
1002
}
  0
LINE
  5
203
102
{ACAD_REACTORS
330
204
102
}
100
AcDbEntity
  8
NORMTEILE
  6
STRICHPUNKT
 48
0.20000000298
100
AcDbLine
 10
-1021.561543233955
 20
-6.619831324829
 30
0.0
 11
-1021.561543233955
 21
-16.616831324828
 31
0.0
1001
ACAD
1000
TCW40_DEV_WIDTH
1002
{
1040
0.003937007859
1002
}
1001
TCAD
1000
TCW_ATTRIBUTE
1002
{
1000
Linie
1002
}
  0
CIRCLE
  5
205
102
{ACAD_REACTORS
330
209
102
}
100
AcDbEntity
  8
NORMTEILE
  6
CONTINUOUS
100
AcDbCircle
 10
-1021.56154411515
 20
28.381668675171
 30
0.0
 40
4.9985
1001
ACAD
1000
TCW40_DEV_WIDTH
1002
{
1040
0.011811023578
1002
}
1001
TCAD
1000
TCW_ATTRIBUTE
1002
{
1000
Kreis / Bogen
1002
}
  0
LWPOLYLINE
  5
206
102
{ACAD_REACTORS
330
209
102
}
100
AcDbEntity
  8
NORMTEILE
  6
CONTINUOUS
 48
0.20000000298
100
AcDbPolyline
 90
        6
 70
           1
 10
-1021.561543233955
 20
25.465118429887
 10
-1024.087349625362
 20
26.923393429886
 10
-1024.087349625362
 20
29.839943429887
 10
-1021.561543233955
 20
31.298218429887
 10
-1019.035736842547
 20
29.839943429887
 10
-1019.035736842547
 20
26.923393429886
1001
ACAD
1000
TCW40_DEV_WIDTH
1002
{
1040
0.011811023578
1002
}
1001
TCAD
1000
TCW_ATTRIBUTE
1002
{
1000
Linie
1002
}
  0
LINE
  5
207
102
{ACAD_REACTORS
330
209
102
}
100
AcDbEntity
  8
NORMTEILE
  6
STRICHPUNKT
 48
0.20000000298
100
AcDbLine
 10
-1016.56304411515
 20
28.381667793977
 30
0.0
 11
-1026.56004411515
 21
28.381667793977
 31
0.0
1001
ACAD
1000
TCW40_DEV_WIDTH
1002
{
1040
0.003937007859
1002
}
1001
TCAD
1000
TCW_ATTRIBUTE
1002
{
1000
Linie
1002
}
  0
LINE
  5
208
102
{ACAD_REACTORS
330
209
102
}
100
AcDbEntity
  8
NORMTEILE
  6
STRICHPUNKT
 48
0.20000000298
100
AcDbLine
 10
-1021.561543233955
 20
33.380168675171
 30
0.0
 11
-1021.561543233955
 21
23.383168675172
 31
0.0
1001
ACAD
1000
TCW40_DEV_WIDTH
1002
{
1040
0.003937007859
1002
}
1001
TCAD
1000
TCW_ATTRIBUTE
1002
{
1000
Linie
1002
}
  0
CIRCLE
  5
20A
102
{ACAD_REACTORS
330
20E
102
}
100
AcDbEntity
  8
NORMTEILE
  6
CONTINUOUS
100
AcDbCircle
 10
-997.56154411515
 20
28.381668675172
 30
0.0
 40
4.9985
1001
ACAD
1000
TCW40_DEV_WIDTH
1002
{
1040
0.011811023578
1002
}
1001
TCAD
1000
TCW_ATTRIBUTE
1002
{
1000
Kreis / Bogen
1002
}
  0
LWPOLYLINE
  5
20B
102
{ACAD_REACTORS
330
20E
102
}
100
AcDbEntity
  8
NORMTEILE
  6
CONTINUOUS
 48
0.20000000298
100
AcDbPolyline
 90
        6
 70
           1
 10
-997.561543233955
 20
25.465118429887
 10
-1000.087349625363
 20
26.923393429887
 10
-1000.087349625363
 20
29.839943429887
 10
-997.561543233955
 20
31.298218429887
 10
-995.035736842548
 20
29.839943429887
 10
-995.035736842548
 20
26.923393429887
1001
ACAD
1000
TCW40_DEV_WIDTH
1002
{
1040
0.011811023578
1002
}
1001
TCAD
1000
TCW_ATTRIBUTE
1002
{
1000
Linie
1002
}
  0
LINE
  5
20C
102
{ACAD_REACTORS
330
20E
102
}
100
AcDbEntity
  8
NORMTEILE
  6
STRICHPUNKT
 48
0.20000000298
100
AcDbLine
 10
-992.56304411515
 20
28.381667793977
 30
0.0
 11
-1002.56004411515
 21
28.381667793977
 31
0.0
1001
ACAD
1000
TCW40_DEV_WIDTH
1002
{
1040
0.003937007859
1002
}
1001
TCAD
1000
TCW_ATTRIBUTE
1002
{
1000
Linie
1002
}
  0
LINE
  5
20D
102
{ACAD_REACTORS
330
20E
102
}
100
AcDbEntity
  8
NORMTEILE
  6
STRICHPUNKT
 48
0.20000000298
100
AcDbLine
 10
-997.561543233955
 20
33.380168675172
 30
0.0
 11
-997.561543233955
 21
23.383168675172
 31
0.0
1001
ACAD
1000
TCW40_DEV_WIDTH
1002
{
1040
0.003937007859
1002
}
1001
TCAD
1000
TCW_ATTRIBUTE
1002
{
1000
Linie
1002
}
  0
LINE
  5
20F
100
AcDbEntity
  8
F_HRUNG
  6
CONTINUOUS
 48
0.20000000298
100
AcDbLine
 10
-1031.561543233955
 20
48.381671608657
 30
0.0
 11
-1031.561543233955
 21
-31.618328391343
 31
0.0
1001
ACAD
1000
TCW40_DEV_WIDTH
1002
{
1040
0.011811023578
1002
}
1001
TCAD
1000
TCW_ATTRIBUTE
1002
{
1000
Linie
1002
}
  0
LINE
  5
210
100
AcDbEntity
  8
F_HRUNG
  6
CONTINUOUS
 48
0.20000000298
100
AcDbLine
 10
-964.561543233955
 20
-35.618328391343
 30
0.0
 11
-964.561543233955
 21
-31.618328391343
 31
0.0
1001
ACAD
1000
TCW40_DEV_WIDTH
1002
{
1040
0.011811023578
1002
}
1001
TCAD
1000
TCW_ATTRIBUTE
1002
{
1000
Linie
1002
}
  0
LINE
  5
211
100
AcDbEntity
  8
F_HRUNG
  6
CONTINUOUS
 48
0.20000000298
100
AcDbLine
 10
-1031.561543233955
 20
38.38167160867
 30
0.0
 11
-1181.061543233956
 21
38.38167160867
 31
0.0
1001
ACAD
1000
TCW40_DEV_WIDTH
1002
{
1040
0.011811023578
1002
}
1001
TCAD
1000
TCW_ATTRIBUTE
1002
{
1000
Linie
1002
}
  0
LINE
  5
212
100
AcDbEntity
  8
F_HRUNG
  6
CONTINUOUS
 48
0.20000000298
100
AcDbLine
 10
-1181.061543233956
 20
-21.61832839133
 30
0.0
 11
-1031.561543233955
 21
-21.61832839133
 31
0.0
1001
ACAD
1000
TCW40_DEV_WIDTH
1002
{
1040
0.011811023578
1002
}
1001
TCAD
1000
TCW_ATTRIBUTE
1002
{
1000
Linie
1002
}
  0
LINE
  5
213
100
AcDbEntity
  8
KAUFTEIL
  6
STRICHPUNKT
 48
0.20000000298
100
AcDbLine
 10
-1241.061543233956
 20
27.38167160867
 30
0.0
 11
-1241.061543233956
 21
37.38167160867
 31
0.0
1001
ACAD
1000
TCW40_DEV_WIDTH
1002
{
1040
0.003937007859
1002
}
  0
LINE
  5
214
100
AcDbEntity
  8
SEITENPLATTEN
  6
CONTINUOUS
 48
0.20000000298
100
AcDbLine
 10
-1156.061543233956
 20
38.38167160867
 30
0.0
 11
-1156.061543233956
 21
46.38167160867
 31
0.0
1001
ACAD
1000
TCW40_DEV_WIDTH
1002
{
1040
0.011811023578
1002
}
1001
TCAD
1000
TCW_ATTRIBUTE
1002
{
1000
Linie
1002
}
  0
LINE
  5
215
100
AcDbEntity
  8
SEITENPLATTEN
  6
CONTINUOUS
 48
0.20000000298
100
AcDbLine
 10
-1156.061543233956
 20
-29.61832839133
 30
0.0
 11
-1156.061543233956
 21
-21.61832839133
 31
0.0
1001
ACAD
1000
TCW40_DEV_WIDTH
1002
{
1040
0.011811023578
1002
}
1001
TCAD
1000
TCW_ATTRIBUTE
1002
{
1000
Linie
1002
}
  0
LINE
  5
216
100
AcDbEntity
  8
SEITENPLATTEN
  6
CONTINUOUS
 48
0.20000000298
100
AcDbLine
 10
-1156.061543233956
 20
-29.61832839133
 30
0.0
 11
-1290.061543233956
 21
-29.61832839133
 31
0.0
1001
ACAD
1000
TCW40_DEV_WIDTH
1002
{
1040
0.011811023578
1002
}
1001
TCAD
1000
TCW_ATTRIBUTE
1002
{
1000
Linie
1002
}
  0
LINE
  5
217
100
AcDbEntity
  8
SEITENPLATTEN
  6
CONTINUOUS
 48
0.20000000298
100
AcDbLine
 10
-1156.061543233956
 20
46.38167160867
 30
0.0
 11
-1290.061543233956
 21
46.38167160867
 31
0.0
1001
ACAD
1000
TCW40_DEV_WIDTH
1002
{
1040
0.011811023578
1002
}
1001
TCAD
1000
TCW_ATTRIBUTE
1002
{
1000
Linie
1002
}
  0
LINE
  5
218
100
AcDbEntity
  8
SEITENPLATTEN
  6
CONTINUOUS
 48
0.20000000298
100
AcDbLine
 10
-1232.061543233956
 20
-44.61832839133
 30
0.0
 11
-1231.061543233956
 21
-43.61832839133
 31
0.0
1001
ACAD
1000
TCW40_DEV_WIDTH
1002
{
1040
0.011811023578
1002
}
1001
TCAD
1000
TCW_ATTRIBUTE
1002
{
1000
Linie
1002
}
  0
LINE
  5
219
100
AcDbEntity
  8
SEITENPLATTEN
  6
CONTINUOUS
 48
0.20000000298
100
AcDbLine
 10
-1232.061543233956
 20
-44.61832839133
 30
0.0
 11
-1250.061543233956
 21
-44.61832839133
 31
0.0
1001
ACAD
1000
TCW40_DEV_WIDTH
1002
{
1040
0.011811023578
1002
}
1001
TCAD
1000
TCW_ATTRIBUTE
1002
{
1000
Linie
1002
}
  0
LINE
  5
21A
100
AcDbEntity
  8
SEITENPLATTEN
  6
CONTINUOUS
 48
0.20000000298
100
AcDbLine
 10
-1251.061543233956
 20
-43.61832839133
 30
0.0
 11
-1250.061543233956
 21
-44.61832839133
 31
0.0
1001
ACAD
1000
TCW40_DEV_WIDTH
1002
{
1040
0.011811023578
1002
}
1001
TCAD
1000
TCW_ATTRIBUTE
1002
{
1000
Linie
1002
}
  0
LINE
  5
21B
100
AcDbEntity
  8
SEITENPLATTEN
  6
CONTINUOUS
 48
0.20000000298
100
AcDbLine
 10
-1251.061543233956
 20
-43.61832839133
 30
0.0
 11
-1231.061543233956
 21
-43.61832839133
 31
0.0
1001
ACAD
1000
TCW40_DEV_WIDTH
1002
{
1040
0.011811023578
1002
}
1001
TCAD
1000
TCW_ATTRIBUTE
1002
{
1000
Linie
1002
}
  0
LINE
  5
21C
100
AcDbEntity
  8
SEITENPLATTEN
  6
CONTINUOUS
 48
0.20000000298
100
AcDbLine
 10
-1251.061543233956
 20
-39.61832839133
 30
0.0
 11
-1251.061543233956
 21
-43.61832839133
 31
0.0
1001
ACAD
1000
TCW40_DEV_WIDTH
1002
{
1040
0.011811023578
1002
}
1001
TCAD
1000
TCW_ATTRIBUTE
1002
{
1000
Linie
1002
}
  0
LINE
  5
21D
100
AcDbEntity
  8
SEITENPLATTEN
  6
CONTINUOUS
 48
0.20000000298
100
AcDbLine
 10
-1231.061543233956
 20
-39.61832839133
 30
0.0
 11
-1231.061543233956
 21
-43.61832839133
 31
0.0
1001
ACAD
1000
TCW40_DEV_WIDTH
1002
{
1040
0.011811023578
1002
}
1001
TCAD
1000
TCW_ATTRIBUTE
1002
{
1000
Linie
1002
}
  0
LINE
  5
21E
100
AcDbEntity
  8
SEITENPLATTEN
  6
STRICHPUNKT
 48
0.20000000298
100
AcDbLine
 10
-1241.061543233956
 20
132.926583619045
 30
0.0
 11
-1241.061543233956
 21
-47.44753057805
 31
0.0
1001
ACAD
1000
TCW40_DEV_WIDTH
1002
{
1040
0.003937007859
1002
}
1001
TCAD
1000
TCW_ATTRIBUTE
1002
{
1000
Linie
1002
}
  0
LINE
  5
21F
100
AcDbEntity
  8
F_HRUNG
  6
STRICHPUNKT
 48
0.20000000298
100
AcDbLine
 10
-934.561543233955
 20
-35.618328391343
 30
0.0
 11
-934.561543233955
 21
-16.476292572774
 31
0.0
1001
ACAD
1000
TCW40_DEV_WIDTH
1002
{
1040
0.003937007859
1002
}
1001
TCAD
1000
TCW_ATTRIBUTE
1002
{
1000
Linie
1002
}
  0
LINE
  5
220
100
AcDbEntity
  8
SEITENPLATTEN
  6
STRICHPUNKT
 48
0.20000000298
100
AcDbLine
 10
-1166.061543233956
 20
46.38167160867
 30
0.0
 11
-1166.061543233956
 21
26.524785089277
 31
0.0
1001
ACAD
1000
TCW40_DEV_WIDTH
1002
{
1040
0.003937007859
1002
}
1001
TCAD
1000
TCW_ATTRIBUTE
1002
{
1000
Linie
1002
}
  0
LINE
  5
221
100
AcDbEntity
  8
SEITENPLATTEN
  6
STRICHPUNKT
 48
0.20000000298
100
AcDbLine
 10
-1166.061543233956
 20
-29.61832839133
 30
0.0
 11
-1166.061543233956
 21
-11.552955767388
 31
0.0
1001
ACAD
1000
TCW40_DEV_WIDTH
1002
{
1040
0.003937007859
1002
}
1001
TCAD
1000
TCW_ATTRIBUTE
1002
{
1000
Linie
1002
}
  0
CIRCLE
  5
222
102
{ACAD_REACTORS
330
226
102
}
100
AcDbEntity
  8
F_HRUNG
  6
CONTINUOUS
100
AcDbCircle
 10
-994.561543233956
 20
38.381671608657
 30
0.0
 40
3.5
1001
ACAD
1000
TCW40_DEV_WIDTH
1002
{
1040
0.011811023578
1002
}
1001
TCAD
1000
TCW_ATTRIBUTE
1002
{
1000
Kreis / Bogen
1002
}
  0
ARC
  5
223
102
{ACAD_REACTORS
330
226
102
}
100
AcDbEntity
  8
F_HRUNG
  6
CONTINUOUS
100
AcDbCircle
 10
-994.561543233956
 20
38.381671608657
 30
0.0
 40
4.0
100
AcDbArc
 50
-90.0
 51
180.0
1001
ACAD
1000
TCW40_DEV_WIDTH
1002
{
1040
0.003937007859
1002
}
1001
TCAD
1000
TCW_ATTRIBUTE
1002
{
1000
Kreis / Bogen
1002
}
  0
LINE
  5
224
102
{ACAD_REACTORS
330
226
102
}
100
AcDbEntity
  8
F_HRUNG
  6
STRICHPUNKT
 48
0.20000000298
100
AcDbLine
 10
-998.561543233956
 20
38.381671608657
 30
0.0
 11
-990.561543233956
 21
38.381671608657
 31
0.0
1001
ACAD
1000
TCW40_DEV_WIDTH
1002
{
1040
0.003937007859
1002
}
1001
TCAD
1000
TCW_ATTRIBUTE
1002
{
1000
Linie
1002
}
  0
LINE
  5
225
102
{ACAD_REACTORS
330
226
102
}
100
AcDbEntity
  8
F_HRUNG
  6
STRICHPUNKT
 48
0.20000000298
100
AcDbLine
 10
-994.561543233956
 20
34.381671608657
 30
0.0
 11
-994.561543233956
 21
42.381671608657
 31
0.0
1001
ACAD
1000
TCW40_DEV_WIDTH
1002
{
1040
0.003937007859
1002
}
1001
TCAD
1000
TCW_ATTRIBUTE
1002
{
1000
Linie
1002
}
  0
CIRCLE
  5
227
102
{ACAD_REACTORS
330
22B
102
}
100
AcDbEntity
  8
F_HRUNG
  6
CONTINUOUS
100
AcDbCircle
 10
-994.561543233956
 20
-21.618328391343
 30
0.0
 40
3.5
1001
ACAD
1000
TCW40_DEV_WIDTH
1002
{
1040
0.011811023578
1002
}
1001
TCAD
1000
TCW_ATTRIBUTE
1002
{
1000
Kreis / Bogen
1002
}
  0
ARC
  5
228
102
{ACAD_REACTORS
330
22B
102
}
100
AcDbEntity
  8
F_HRUNG
  6
CONTINUOUS
100
AcDbCircle
 10
-994.561543233956
 20
-21.618328391343
 30
0.0
 40
4.0
100
AcDbArc
 50
-90.0
 51
180.0
1001
ACAD
1000
TCW40_DEV_WIDTH
1002
{
1040
0.003937007859
1002
}
1001
TCAD
1000
TCW_ATTRIBUTE
1002
{
1000
Kreis / Bogen
1002
}
  0
LINE
  5
229
102
{ACAD_REACTORS
330
22B
102
}
100
AcDbEntity
  8
F_HRUNG
  6
STRICHPUNKT
 48
0.20000000298
100
AcDbLine
 10
-998.561543233956
 20
-21.618328391343
 30
0.0
 11
-990.561543233956
 21
-21.618328391343
 31
0.0
1001
ACAD
1000
TCW40_DEV_WIDTH
1002
{
1040
0.003937007859
1002
}
1001
TCAD
1000
TCW_ATTRIBUTE
1002
{
1000
Linie
1002
}
  0
LINE
  5
22A
102
{ACAD_REACTORS
330
22B
102
}
100
AcDbEntity
  8
F_HRUNG
  6
STRICHPUNKT
 48
0.20000000298
100
AcDbLine
 10
-994.561543233956
 20
-25.618328391343
 30
0.0
 11
-994.561543233956
 21
-17.618328391343
 31
0.0
1001
ACAD
1000
TCW40_DEV_WIDTH
1002
{
1040
0.003937007859
1002
}
1001
TCAD
1000
TCW_ATTRIBUTE
1002
{
1000
Linie
1002
}
  0
CIRCLE
  5
22C
102
{ACAD_REACTORS
330
230
102
}
100
AcDbEntity
  8
F_HRUNG
  6
CONTINUOUS
100
AcDbCircle
 10
-944.561552200486
 20
38.381670852389
 30
0.0
 40
3.5
1001
ACAD
1000
TCW40_DEV_WIDTH
1002
{
1040
0.011811023578
1002
}
1001
TCAD
1000
TCW_ATTRIBUTE
1002
{
1000
Kreis / Bogen
1002
}
  0
ARC
  5
22D
102
{ACAD_REACTORS
330
230
102
}
100
AcDbEntity
  8
F_HRUNG
  6
CONTINUOUS
100
AcDbCircle
 10
-944.561552200486
 20
38.381670852389
 30
0.0
 40
4.0
100
AcDbArc
 50
-90.0
 51
180.0
1001
ACAD
1000
TCW40_DEV_WIDTH
1002
{
1040
0.003937007859
1002
}
1001
TCAD
1000
TCW_ATTRIBUTE
1002
{
1000
Kreis / Bogen
1002
}
  0
LINE
  5
22E
102
{ACAD_REACTORS
330
230
102
}
100
AcDbEntity
  8
F_HRUNG
  6
STRICHPUNKT
 48
0.20000000298
100
AcDbLine
 10
-948.561552200486
 20
38.381670852389
 30
0.0
 11
-940.561552200486
 21
38.381670852389
 31
0.0
1001
ACAD
1000
TCW40_DEV_WIDTH
1002
{
1040
0.003937007859
1002
}
1001
TCAD
1000
TCW_ATTRIBUTE
1002
{
1000
Linie
1002
}
  0
LINE
  5
22F
102
{ACAD_REACTORS
330
230
102
}
100
AcDbEntity
  8
F_HRUNG
  6
STRICHPUNKT
 48
0.20000000298
100
AcDbLine
 10
-944.561552200486
 20
34.381670852389
 30
0.0
 11
-944.561552200486
 21
42.381670852389
 31
0.0
1001
ACAD
1000
TCW40_DEV_WIDTH
1002
{
1040
0.003937007859
1002
}
1001
TCAD
1000
TCW_ATTRIBUTE
1002
{
1000
Linie
1002
}
  0
CIRCLE
  5
231
102
{ACAD_REACTORS
330
235
102
}
100
AcDbEntity
  8
F_HRUNG
  6
CONTINUOUS
100
AcDbCircle
 10
-944.561552200486
 20
-21.618329147611
 30
0.0
 40
3.5
1001
ACAD
1000
TCW40_DEV_WIDTH
1002
{
1040
0.011811023578
1002
}
1001
TCAD
1000
TCW_ATTRIBUTE
1002
{
1000
Kreis / Bogen
1002
}
  0
ARC
  5
232
102
{ACAD_REACTORS
330
235
102
}
100
AcDbEntity
  8
F_HRUNG
  6
CONTINUOUS
100
AcDbCircle
 10
-944.561552200486
 20
-21.618329147611
 30
0.0
 40
4.0
100
AcDbArc
 50
-90.0
 51
180.0
1001
ACAD
1000
TCW40_DEV_WIDTH
1002
{
1040
0.003937007859
1002
}
1001
TCAD
1000
TCW_ATTRIBUTE
1002
{
1000
Kreis / Bogen
1002
}
  0
LINE
  5
233
102
{ACAD_REACTORS
330
235
102
}
100
AcDbEntity
  8
F_HRUNG
  6
STRICHPUNKT
 48
0.20000000298
100
AcDbLine
 10
-948.561552200486
 20
-21.618329147611
 30
0.0
 11
-940.561552200486
 21
-21.618329147611
 31
0.0
1001
ACAD
1000
TCW40_DEV_WIDTH
1002
{
1040
0.003937007859
1002
}
1001
TCAD
1000
TCW_ATTRIBUTE
1002
{
1000
Linie
1002
}
  0
LINE
  5
234
102
{ACAD_REACTORS
330
235
102
}
100
AcDbEntity
  8
F_HRUNG
  6
STRICHPUNKT
 48
0.20000000298
100
AcDbLine
 10
-944.561552200486
 20
-25.618329147611
 30
0.0
 11
-944.561552200486
 21
-17.618329147611
 31
0.0
1001
ACAD
1000
TCW40_DEV_WIDTH
1002
{
1040
0.003937007859
1002
}
1001
TCAD
1000
TCW_ATTRIBUTE
1002
{
1000
Linie
1002
}
  0
LINE
  5
236
100
AcDbEntity
  8
ABDECKUNG
  6
CONTINUOUS
 48
0.20000000298
100
AcDbLine
 10
-1212.525644849094
 20
45.38167160867
 30
0.0
 11
-1291.061543233955
 21
45.38167160867
 31
0.0
1001
ACAD
1000
TCW40_DEV_WIDTH
1002
{
1040
0.011811023578
1002
}
1001
TCAD
1000
TCW_ATTRIBUTE
1002
{
1000
Linie
1002
}
1000
TCW_CUSTOM_DATA
1002
{
1000
#$AUX@_ToolInfo Properties
1070
           8
1000
Ändern^J2Linienzusammenführen@2Linienzusammenführen
1002
}
  0
LINE
  5
237
100
AcDbEntity
  8
ABDECKUNG
  6
CONTINUOUS
 48
0.20000000298
100
AcDbLine
 10
-1212.525644849094
 20
-28.61832839133
 30
0.0
 11
-1291.061543233955
 21
-28.61832839133
 31
0.0
1001
ACAD
1000
TCW40_DEV_WIDTH
1002
{
1040
0.011811023578
1002
}
1001
TCAD
1000
TCW_ATTRIBUTE
1002
{
1000
Linie
1002
}
1000
TCW_CUSTOM_DATA
1002
{
1000
#$AUX@_ToolInfo Properties
1070
           8
1000
Ändern^J2Linienzusammenführen@2Linienzusammenführen
1002
}
  0
LINE
  5
238
100
AcDbEntity
  8
ABDECKUNG
  6
CONTINUOUS
 48
0.20000000298
100
AcDbLine
 10
-1291.061543233955
 20
45.38167160867
 30
0.0
 11
-1291.061543233955
 21
-28.61832839133
 31
0.0
1001
ACAD
1000
TCW40_DEV_WIDTH
1002
{
1040
0.011811023578
1002
}
1001
TCAD
1000
TCW_ATTRIBUTE
1002
{
1000
Linie
1002
}
1000
TCW_CUSTOM_DATA
1002
{
1000
#$AUX@_ToolInfo Properties
1070
           8
1000
Ändern^J2Linienzusammenführen@2Linienzusammenführen
1002
}
  0
LINE
  5
239
100
AcDbEntity
  8
ABDECKUNG
  6
CONTINUOUS
 48
0.20000000298
100
AcDbLine
 10
-1212.525644849094
 20
45.38167160867
 30
0.0
 11
-1212.525644849094
 21
-28.61832839133
 31
0.0
1001
ACAD
1000
TCW40_DEV_WIDTH
1002
{
1040
0.011811023578
1002
}
1001
TCAD
1000
TCW_ATTRIBUTE
1002
{
1000
Linie
1002
}
1000
TCW_CUSTOM_DATA
1002
{
1000
#$AUX@_ToolInfo Properties
1070
           8
1000
Ändern^J2Linienzusammenführen@2Linienzusammenführen
1002
}
  0
LINE
  5
23A
100
AcDbEntity
  8
SEITENPLATTEN
  6
CONTINUOUS
 48
0.20000000298
100
AcDbLine
 10
-1290.061543233956
 20
45.38167160867
 30
0.0
 11
-1290.061543233956
 21
46.38167160867
 31
0.0
1001
ACAD
1000
TCW40_DEV_WIDTH
1002
{
1040
0.011811023578
1002
}
1001
TCAD
1000
TCW_ATTRIBUTE
1002
{
1000
Linie
1002
}
  0
LINE
  5
23B
100
AcDbEntity
  8
SEITENPLATTEN
  6
CONTINUOUS
 48
0.20000000298
100
AcDbLine
 10
-1156.061543233956
 20
38.38167160867
 30
0.0
 11
-1212.525644849094
 21
38.38167160867
 31
0.0
1001
ACAD
1000
TCW40_DEV_WIDTH
1002
{
1040
0.011811023578
1002
}
1001
TCAD
1000
TCW_ATTRIBUTE
1002
{
1000
Linie
1002
}
  0
LINE
  5
23C
100
AcDbEntity
  8
SEITENPLATTEN
  6
CONTINUOUS
 48
0.20000000298
100
AcDbLine
 10
-1290.061543233956
 20
-29.61832839133
 30
0.0
 11
-1290.061543233956
 21
-28.61832839133
 31
0.0
1001
ACAD
1000
TCW40_DEV_WIDTH
1002
{
1040
0.011811023578
1002
}
1001
TCAD
1000
TCW_ATTRIBUTE
1002
{
1000
Linie
1002
}
  0
LINE
  5
23D
100
AcDbEntity
  8
SEITENPLATTEN
  6
CONTINUOUS
 48
0.20000000298
100
AcDbLine
 10
-1156.061543233956
 20
-21.61832839133
 30
0.0
 11
-1212.525644849094
 21
-21.61832839133
 31
0.0
1001
ACAD
1000
TCW40_DEV_WIDTH
1002
{
1040
0.011811023578
1002
}
1001
TCAD
1000
TCW_ATTRIBUTE
1002
{
1000
Linie
1002
}
  0
LINE
  5
23E
100
AcDbEntity
  8
KAUFTEIL
  6
CONTINUOUS
 48
0.20000000298
100
AcDbLine
 10
-1181.061543233956
 20
23.38167160867
 30
0.0
 11
-1031.561543233955
 21
23.38167160867
 31
0.0
1001
ACAD
1000
TCW40_DEV_WIDTH
1002
{
1040
0.011811023578
1002
}
1001
TCAD
1000
TCW_ATTRIBUTE
1002
{
1000
Linie
1002
}
1000
TCW_CUSTOM_DATA
1002
{
1000
#$AUX@_ToolInfo Properties
1070
           8
1000
Ändern^J2Linienzusammenführen@2Linienzusammenführen
1002
}
  0
LINE
  5
23F
100
AcDbEntity
  8
KAUFTEIL
  6
CONTINUOUS
 48
0.20000000298
100
AcDbLine
 10
-1181.061543233956
 20
-6.61832839133
 30
0.0
 11
-1031.561543233955
 21
-6.61832839133
 31
0.0
1001
ACAD
1000
TCW40_DEV_WIDTH
1002
{
1040
0.011811023578
1002
}
1001
TCAD
1000
TCW_ATTRIBUTE
1002
{
1000
Linie
1002
}
1000
TCW_CUSTOM_DATA
1002
{
1000
#$AUX@_ToolInfo Properties
1070
           8
1000
Ändern^J2Linienzusammenführen@2Linienzusammenführen
1002
}
  0
LINE
  5
240
100
AcDbEntity
  8
F_HRUNG
  6
CONTINUOUS
 48
0.20000000298
100
AcDbLine
 10
-1187.061543233956
 20
-21.61832839133
 30
0.0
 11
-1187.061543233956
 21
38.38167160867
 31
0.0
1001
ACAD
1000
TCW40_DEV_WIDTH
1002
{
1040
0.011811023578
1002
}
1001
TCAD
1000
TCW_ATTRIBUTE
1002
{
1000
Linie
1002
}
  0
LINE
  5
241
100
AcDbEntity
  8
F_HRUNG
  6
CONTINUOUS
 48
0.20000000298
100
AcDbLine
 10
-1181.061543233956
 20
38.38167160867
 30
0.0
 11
-1181.061543233956
 21
-21.61832839133
 31
0.0
1001
ACAD
1000
TCW40_DEV_WIDTH
1002
{
1040
0.011811023578
1002
}
1001
TCAD
1000
TCW_ATTRIBUTE
1002
{
1000
Linie
1002
}
  0
LINE
  5
242
102
{ACAD_REACTORS
330
249
102
}
100
AcDbEntity
  8
NORMTEILE
  6
STRICHPUNKT
 48
0.20000000298
100
AcDbLine
 10
-1166.061543233956
 20
45.16894520221
 30
0.0
 11
-1166.061543233956
 21
49.171746813934
 31
0.0
1001
ACAD
1000
TCW40_DEV_WIDTH
1002
{
1040
0.003937007859
1002
}
1001
TCAD
1000
TCW_ATTRIBUTE
1002
{
1000
Linie
1002
}
  0
LINE
  5
243
102
{ACAD_REACTORS
330
249
102
}
100
AcDbEntity
  8
NORMTEILE
  6
CONTINUOUS
 48
0.20000000298
100
AcDbLine
 10
-1159.561543233956
 20
46.38167160867
 30
0.0
 11
-1172.561543233956
 21
46.38167160867
 31
0.0
1001
ACAD
1000
TCW40_DEV_WIDTH
1002
{
1040
0.011811023578
1002
}
1001
TCAD
1000
TCW_ATTRIBUTE
1002
{
1000
Linie
1002
}
1000
TCW_CUSTOM_DATA
1002
{
1000
#$AUX@_ToolInfo Properties
1070
           8
1000
Einfügen^JLinie^JParallellinie@Linie Parallellinie
1002
}
  0
LINE
  5
244
102
{ACAD_REACTORS
330
249
102
}
100
AcDbEntity
  8
NORMTEILE
  6
GESTRICHELT
 48
0.20000000298
100
AcDbLine
 10
-1162.311543233956
 20
48.38167160867
 30
0.0
 11
-1162.311543233956
 21
46.38167160867
 31
0.0
1001
ACAD
1000
TCW40_DEV_WIDTH
1002
{
1040
0.011811023578
1002
}
1001
TCAD
1000
TCW_ATTRIBUTE
1002
{
1000
Linie
1002
}
  0
LINE
  5
245
102
{ACAD_REACTORS
330
249
102
}
100
AcDbEntity
  8
NORMTEILE
  6
GESTRICHELT
 48
0.20000000298
100
AcDbLine
 10
-1163.561543233956
 20
48.38167160867
 30
0.0
 11
-1163.561543233956
 21
46.38167160867
 31
0.0
1001
ACAD
1000
TCW40_DEV_WIDTH
1002
{
1040
0.011811023578
1002
}
1001
TCAD
1000
TCW_ATTRIBUTE
1002
{
1000
Linie
1002
}
  0
LINE
  5
246
102
{ACAD_REACTORS
330
249
102
}
100
AcDbEntity
  8
NORMTEILE
  6
GESTRICHELT
 48
0.20000000298
100
AcDbLine
 10
-1168.561543233956
 20
48.38167160867
 30
0.0
 11
-1168.561543233956
 21
46.38167160867
 31
0.0
1001
ACAD
1000
TCW40_DEV_WIDTH
1002
{
1040
0.011811023578
1002
}
1001
TCAD
1000
TCW_ATTRIBUTE
1002
{
1000
Linie
1002
}
  0
LINE
  5
247
102
{ACAD_REACTORS
330
249
102
}
100
AcDbEntity
  8
NORMTEILE
  6
GESTRICHELT
 48
0.20000000298
100
AcDbLine
 10
-1169.811543233956
 20
48.38167160867
 30
0.0
 11
-1169.811543233956
 21
46.38167160867
 31
0.0
1001
ACAD
1000
TCW40_DEV_WIDTH
1002
{
1040
0.011811023578
1002
}
1001
TCAD
1000
TCW_ATTRIBUTE
1002
{
1000
Linie
1002
}
  0
LWPOLYLINE
  5
248
102
{ACAD_REACTORS
330
249
102
}
100
AcDbEntity
  8
NORMTEILE
  6
CONTINUOUS
100
AcDbPolyline
 90
        6
 70
           0
 10
-1159.561543233956
 20
46.38167160867
 10
-1159.561543233956
 20
47.68167160867
 42
0.414213562373
 10
-1160.261543233956
 20
48.38167160867
 10
-1171.861543233956
 20
48.38167160867
 42
0.414213562373
 10
-1172.561543233956
 20
47.68167160867
 10
-1172.561543233956
 20
46.38167160867
1001
ACAD
1000
TCW40_DEV_WIDTH
1002
{
1040
0.011811023578
1002
}
1001
TCAD
1000
TCW_ATTRIBUTE
1002
{
1000
Linie
1002
}
1000
TCW_CUSTOM_DATA
1002
{
1000
#$AUX@_ToolInfo Properties
1070
           8
1000
Ändern^JAbrunden@Abrunden
1002
}
  0
LINE
  5
24A
102
{ACAD_REACTORS
330
251
102
}
100
AcDbEntity
  8
NORMTEILE
  6
STRICHPUNKT
 48
0.20000000298
100
AcDbLine
 10
-1166.061543233956
 20
-28.405601984871
 30
0.0
 11
-1166.061543233956
 21
-32.408403596594
 31
0.0
1001
ACAD
1000
TCW40_DEV_WIDTH
1002
{
1040
0.003937007859
1002
}
1001
TCAD
1000
TCW_ATTRIBUTE
1002
{
1000
Linie
1002
}
  0
LINE
  5
24B
102
{ACAD_REACTORS
330
251
102
}
100
AcDbEntity
  8
NORMTEILE
  6
CONTINUOUS
 48
0.20000000298
100
AcDbLine
 10
-1172.561543233956
 20
-29.61832839133
 30
0.0
 11
-1159.561543233956
 21
-29.61832839133
 31
0.0
1001
ACAD
1000
TCW40_DEV_WIDTH
1002
{
1040
0.011811023578
1002
}
1001
TCAD
1000
TCW_ATTRIBUTE
1002
{
1000
Linie
1002
}
1000
TCW_CUSTOM_DATA
1002
{
1000
#$AUX@_ToolInfo Properties
1070
           8
1000
Einfügen^JLinie^JParallellinie@Linie Parallellinie
1002
}
  0
LINE
  5
24C
102
{ACAD_REACTORS
330
251
102
}
100
AcDbEntity
  8
NORMTEILE
  6
GESTRICHELT
 48
0.20000000298
100
AcDbLine
 10
-1169.811543233956
 20
-31.61832839133
 30
0.0
 11
-1169.811543233956
 21
-29.61832839133
 31
0.0
1001
ACAD
1000
TCW40_DEV_WIDTH
1002
{
1040
0.011811023578
1002
}
1001
TCAD
1000
TCW_ATTRIBUTE
1002
{
1000
Linie
1002
}
  0
LINE
  5
24D
102
{ACAD_REACTORS
330
251
102
}
100
AcDbEntity
  8
NORMTEILE
  6
GESTRICHELT
 48
0.20000000298
100
AcDbLine
 10
-1168.561543233956
 20
-31.61832839133
 30
0.0
 11
-1168.561543233956
 21
-29.61832839133
 31
0.0
1001
ACAD
1000
TCW40_DEV_WIDTH
1002
{
1040
0.011811023578
1002
}
1001
TCAD
1000
TCW_ATTRIBUTE
1002
{
1000
Linie
1002
}
  0
LINE
  5
24E
102
{ACAD_REACTORS
330
251
102
}
100
AcDbEntity
  8
NORMTEILE
  6
GESTRICHELT
 48
0.20000000298
100
AcDbLine
 10
-1163.561543233956
 20
-31.61832839133
 30
0.0
 11
-1163.561543233956
 21
-29.61832839133
 31
0.0
1001
ACAD
1000
TCW40_DEV_WIDTH
1002
{
1040
0.011811023578
1002
}
1001
TCAD
1000
TCW_ATTRIBUTE
1002
{
1000
Linie
1002
}
  0
LINE
  5
24F
102
{ACAD_REACTORS
330
251
102
}
100
AcDbEntity
  8
NORMTEILE
  6
GESTRICHELT
 48
0.20000000298
100
AcDbLine
 10
-1162.311543233956
 20
-31.61832839133
 30
0.0
 11
-1162.311543233956
 21
-29.61832839133
 31
0.0
1001
ACAD
1000
TCW40_DEV_WIDTH
1002
{
1040
0.011811023578
1002
}
1001
TCAD
1000
TCW_ATTRIBUTE
1002
{
1000
Linie
1002
}
  0
LWPOLYLINE
  5
250
102
{ACAD_REACTORS
330
251
102
}
100
AcDbEntity
  8
NORMTEILE
  6
CONTINUOUS
100
AcDbPolyline
 90
        6
 70
           0
 10
-1172.561543233956
 20
-29.61832839133
 10
-1172.561543233956
 20
-30.91832839133
 42
0.414213562373
 10
-1171.861543233956
 20
-31.61832839133
 10
-1160.261543233956
 20
-31.61832839133
 42
0.414213562373
 10
-1159.561543233956
 20
-30.91832839133
 10
-1159.561543233956
 20
-29.61832839133
1001
ACAD
1000
TCW40_DEV_WIDTH
1002
{
1040
0.011811023578
1002
}
1001
TCAD
1000
TCW_ATTRIBUTE
1002
{
1000
Linie
1002
}
1000
TCW_CUSTOM_DATA
1002
{
1000
#$AUX@_ToolInfo Properties
1070
           8
1000
Ändern^JAbrunden@Abrunden
1002
}
  0
LINE
  5
252
100
AcDbEntity
  8
SEITENPLATTEN
  6
CONTINUOUS
 48
0.20000000298
100
AcDbLine
 10
-1232.061543233956
 20
182.48167160867
 30
0.0
 11
-1231.061543233956
 21
181.48167160867
 31
0.0
1001
ACAD
1000
TCW40_DEV_WIDTH
1002
{
1040
0.011811023578
1002
}
1001
TCAD
1000
TCW_ATTRIBUTE
1002
{
1000
Linie
1002
}
  0
LINE
  5
253
100
AcDbEntity
  8
SEITENPLATTEN
  6
CONTINUOUS
 48
0.20000000298
100
AcDbLine
 10
-1232.061543233956
 20
182.48167160867
 30
0.0
 11
-1250.061543233956
 21
182.48167160867
 31
0.0
1001
ACAD
1000
TCW40_DEV_WIDTH
1002
{
1040
0.011811023578
1002
}
1001
TCAD
1000
TCW_ATTRIBUTE
1002
{
1000
Linie
1002
}
  0
LINE
  5
254
100
AcDbEntity
  8
SEITENPLATTEN
  6
CONTINUOUS
 48
0.20000000298
100
AcDbLine
 10
-1251.061543233956
 20
181.48167160867
 30
0.0
 11
-1250.061543233956
 21
182.48167160867
 31
0.0
1001
ACAD
1000
TCW40_DEV_WIDTH
1002
{
1040
0.011811023578
1002
}
1001
TCAD
1000
TCW_ATTRIBUTE
1002
{
1000
Linie
1002
}
  0
LINE
  5
255
100
AcDbEntity
  8
SEITENPLATTEN
  6
CONTINUOUS
 48
0.20000000298
100
AcDbLine
 10
-1251.061543233956
 20
166.68167160867
 30
0.0
 11
-1251.061543233956
 21
181.48167160867
 31
0.0
1001
ACAD
1000
TCW40_DEV_WIDTH
1002
{
1040
0.011811023578
1002
}
1001
TCAD
1000
TCW_ATTRIBUTE
1002
{
1000
Linie
1002
}
  0
LINE
  5
256
100
AcDbEntity
  8
SEITENPLATTEN
  6
CONTINUOUS
 48
0.20000000298
100
AcDbLine
 10
-1231.061543233956
 20
166.68167160867
 30
0.0
 11
-1231.061543233956
 21
181.48167160867
 31
0.0
1001
ACAD
1000
TCW40_DEV_WIDTH
1002
{
1040
0.011811023578
1002
}
1001
TCAD
1000
TCW_ATTRIBUTE
1002
{
1000
Linie
1002
}
  0
LINE
  5
257
100
AcDbEntity
  8
SEITENPLATTEN
  6
CONTINUOUS
 48
0.20000000298
100
AcDbLine
 10
-1251.061543233956
 20
181.48167160867
 30
0.0
 11
-1231.061543233956
 21
181.48167160867
 31
0.0
1001
ACAD
1000
TCW40_DEV_WIDTH
1002
{
1040
0.011811023578
1002
}
1001
TCAD
1000
TCW_ATTRIBUTE
1002
{
1000
Linie
1002
}
  0
LINE
  5
258
102
{ACAD_REACTORS
330
26C
102
}
100
AcDbEntity
  8
0
  6
CONTINUOUS
 48
0.20000000298
100
AcDbLine
 10
-1270.061543233956
 20
193.48167160867
 30
0.0
 11
-1270.061543233956
 21
249.48167160867
 31
0.0
1001
ACAD
1000
TCW40_DEV_WIDTH
1002
{
1040
0.011811023578
1002
}
1001
TCAD
1000
TCW_ATTRIBUTE
1002
{
1000
Linie
1002
}
  0
LINE
  5
259
102
{ACAD_REACTORS
330
26C
102
}
100
AcDbEntity
  8
0
  6
CONTINUOUS
 48
0.20000000298
100
AcDbLine
 10
-1259.061543233956
 20
183.48167160867
 30
0.0
 11
-1259.061543233956
 21
193.48167160867
 31
0.0
1001
ACAD
1000
TCW40_DEV_WIDTH
1002
{
1040
0.011811023578
1002
}
1001
TCAD
1000
TCW_ATTRIBUTE
1002
{
1000
Linie
1002
}
  0
LINE
  5
25A
102
{ACAD_REACTORS
330
26C
102
}
100
AcDbEntity
  8
0
  6
CONTINUOUS
 48
0.20000000298
100
AcDbLine
 10
-1259.061543233956
 20
183.48167160867
 30
0.0
 11
-1241.061543233956
 21
183.48167160867
 31
0.0
1001
ACAD
1000
TCW40_DEV_WIDTH
1002
{
1040
0.011811023578
1002
}
1001
TCAD
1000
TCW_ATTRIBUTE
1002
{
1000
Linie
1002
}
  0
LINE
  5
25B
102
{ACAD_REACTORS
330
26C
102
}
100
AcDbEntity
  8
0
  6
CONTINUOUS
 48
0.20000000298
100
AcDbLine
 10
-1270.061543233956
 20
193.48167160867
 30
0.0
 11
-1241.061543233956
 21
193.48167160867
 31
0.0
1001
ACAD
1000
TCW40_DEV_WIDTH
1002
{
1040
0.011811023578
1002
}
1001
TCAD
1000
TCW_ATTRIBUTE
1002
{
1000
Linie
1002
}
  0
LINE
  5
25C
102
{ACAD_REACTORS
330
26C
102
}
100
AcDbEntity
  8
0
  6
CONTINUOUS
 48
0.20000000298
100
AcDbLine
 10
-1270.061543233956
 20
249.48167160867
 30
0.0
 11
-1241.061543233956
 21
249.48167160867
 31
0.0
1001
ACAD
1000
TCW40_DEV_WIDTH
1002
{
1040
0.011811023578
1002
}
1001
TCAD
1000
TCW_ATTRIBUTE
1002
{
1000
Linie
1002
}
  0
LINE
  5
25D
102
{ACAD_REACTORS
330
26C
102
}
100
AcDbEntity
  8
0
  6
CONTINUOUS
 48
0.20000000298
100
AcDbLine
 10
-1246.061543233956
 20
182.48167160867
 30
0.0
 11
-1246.061543233956
 21
183.48167160867
 31
0.0
1001
ACAD
1000
TCW40_DEV_WIDTH
1002
{
1040
0.011811023578
1002
}
1001
TCAD
1000
TCW_ATTRIBUTE
1002
{
1000
Linie
1002
}
  0
LINE
  5
25E
102
{ACAD_REACTORS
330
26C
102
}
100
AcDbEntity
  8
0
  6
CONTINUOUS
 48
0.20000000298
100
AcDbLine
 10
-1212.061543233956
 20
193.48167160867
 30
0.0
 11
-1212.061543233956
 21
249.48167160867
 31
0.0
1001
ACAD
1000
TCW40_DEV_WIDTH
1002
{
1040
0.011811023578
1002
}
1001
TCAD
1000
TCW_ATTRIBUTE
1002
{
1000
Linie
1002
}
  0
LINE
  5
25F
102
{ACAD_REACTORS
330
26C
102
}
100
AcDbEntity
  8
0
  6
CONTINUOUS
 48
0.20000000298
100
AcDbLine
 10
-1223.061543233956
 20
183.48167160867
 30
0.0
 11
-1223.061543233956
 21
193.48167160867
 31
0.0
1001
ACAD
1000
TCW40_DEV_WIDTH
1002
{
1040
0.011811023578
1002
}
1001
TCAD
1000
TCW_ATTRIBUTE
1002
{
1000
Linie
1002
}
  0
LINE
  5
260
102
{ACAD_REACTORS
330
26C
102
}
100
AcDbEntity
  8
0
  6
CONTINUOUS
 48
0.20000000298
100
AcDbLine
 10
-1223.061543233956
 20
183.48167160867
 30
0.0
 11
-1241.061543233956
 21
183.48167160867
 31
0.0
1001
ACAD
1000
TCW40_DEV_WIDTH
1002
{
1040
0.011811023578
1002
}
1001
TCAD
1000
TCW_ATTRIBUTE
1002
{
1000
Linie
1002
}
  0
LINE
  5
261
102
{ACAD_REACTORS
330
26C
102
}
100
AcDbEntity
  8
0
  6
CONTINUOUS
 48
0.20000000298
100
AcDbLine
 10
-1212.061543233956
 20
193.48167160867
 30
0.0
 11
-1241.061543233956
 21
193.48167160867
 31
0.0
1001
ACAD
1000
TCW40_DEV_WIDTH
1002
{
1040
0.011811023578
1002
}
1001
TCAD
1000
TCW_ATTRIBUTE
1002
{
1000
Linie
1002
}
  0
LINE
  5
262
102
{ACAD_REACTORS
330
26C
102
}
100
AcDbEntity
  8
0
  6
CONTINUOUS
 48
0.20000000298
100
AcDbLine
 10
-1212.061543233956
 20
249.48167160867
 30
0.0
 11
-1241.061543233956
 21
249.48167160867
 31
0.0
1001
ACAD
1000
TCW40_DEV_WIDTH
1002
{
1040
0.011811023578
1002
}
1001
TCAD
1000
TCW_ATTRIBUTE
1002
{
1000
Linie
1002
}
  0
LINE
  5
263
102
{ACAD_REACTORS
330
26C
102
}
100
AcDbEntity
  8
0
  6
CONTINUOUS
 48
0.20000000298
100
AcDbLine
 10
-1236.061543233956
 20
182.48167160867
 30
0.0
 11
-1236.061543233956
 21
183.48167160867
 31
0.0
1001
ACAD
1000
TCW40_DEV_WIDTH
1002
{
1040
0.011811023578
1002
}
1001
TCAD
1000
TCW_ATTRIBUTE
1002
{
1000
Linie
1002
}
  0
LINE
  5
264
102
{ACAD_REACTORS
330
26C
102
}
100
AcDbEntity
  8
0
  6
STRICHPUNKT
 48
0.20000000298
100
AcDbLine
 10
-1241.061543233956
 20
163.48167160867
 30
0.0
 11
-1241.061543233956
 21
249.48167160867
 31
0.0
1001
ACAD
1000
TCW40_DEV_WIDTH
1002
{
1040
0.003937007859
1002
}
1001
TCAD
1000
TCW_ATTRIBUTE
1002
{
1000
Linie
1002
}
  0
CIRCLE
  5
265
102
{ACAD_REACTORS
330
26C
102
}
100
AcDbEntity
  8
0
  6
CONTINUOUS
 48
0.20000000298
100
AcDbCircle
 10
-1241.061543233956
 20
232.98167160867
 30
0.0
 40
12.5
1001
ACAD
1000
TCW40_DEV_WIDTH
1002
{
1040
0.011811023578
1002
}
1001
TCAD
1000
TCW_ATTRIBUTE
1002
{
1000
Kreis / Bogen
1002
}
  0
LINE
  5
266
102
{ACAD_REACTORS
330
26C
102
}
100
AcDbEntity
  8
0
  6
STRICHPUNKT
 48
0.20000000298
100
AcDbLine
 10
-1228.561543233956
 20
232.98167160867
 30
0.0
 11
-1253.561543233956
 21
232.98167160867
 31
0.0
1001
ACAD
1000
TCW40_DEV_WIDTH
1002
{
1040
0.003937007859
1002
}
1001
TCAD
1000
TCW_ATTRIBUTE
1002
{
1000
Linie
1002
}
  0
CIRCLE
  5
267
102
{ACAD_REACTORS
330
26C
102
}
100
AcDbEntity
  8
0
  6
CONTINUOUS
 48
0.20000000298
100
AcDbCircle
 10
-1241.061543233956
 20
232.98167160867
 30
0.0
 40
4.0
1001
ACAD
1000
TCW40_DEV_WIDTH
1002
{
1040
0.011811023578
1002
}
1001
TCAD
1000
TCW_ATTRIBUTE
1002
{
1000
Kreis / Bogen
1002
}
  0
LWPOLYLINE
  5
269
102
{ACAD_REACTORS
330
268
330
26C
102
}
100
AcDbEntity
  8
0
  6
CONTINUOUS
 62
           7
100
AcDbPolyline
 90
      121
 70
           1
 10
-1241.061543233956
 20
236.98167160867
 10
-1241.269158506483
 20
236.976279962265
 10
-1241.476214084942
 20
236.960119557977
 10
-1241.6821517841
 20
236.933233961397
 10
-1241.886416432328
 20
236.895695651341
 10
-1242.088457368249
 20
236.847605824456
 10
-1242.28772992522
 20
236.789094122414
 10
-1242.483696899658
 20
236.720318282418
 10
-1242.675829999247
 20
236.641463711974
 10
-1242.863611267119
 20
236.552742989061
 10
-1243.046534478175
 20
236.454395289064
 10
-1243.224106503778
 20
236.346685739995
 10
-1243.395848641142
 20
236.229904707753
 10
-1243.561297903828
 20
236.104367013357
 10
-1243.720008269874
 20
235.970411084234
 10
-1243.871551884195
 20
235.828398041888
 10
-1244.015520211996
 20
235.678710728372
 10
-1244.151525140122
 20
235.52175267422
 10
-1244.27920002333
 20
235.357947010595
 10
-1244.398200672707
 20
235.187735328607
 10
-1244.508206283544
 20
235.011576488856
 10
-1244.60892030016
 20
234.829945384431
 10
-1244.700071215374
 20
234.643331660677
 10
-1244.781413302433
 20
234.452238395201
 10
-1244.852727277452
 20
234.25718074166
 10
-1244.913820890562
 20
234.058684541004
 10
-1244.964529444183
 20
233.857284903896
 10
-1245.00471623702
 20
233.65352476815
 10
-1245.034272932585
 20
233.447953435069
 10
-1245.053119851251
 20
233.241125088621
 10
-1245.061206185059
 20
233.033597301462
 10
-1245.058510134682
 20
232.825929531815
 10
-1245.045038968194
 20
232.618681615273
 10
-1245.020829001479
 20
232.412412255577
 10
-1244.985945500328
 20
232.207677518453
 10
-1244.940482504492
 20
232.005029332556
 10
-1244.88456257417
 20
231.805014001568
 10
-1244.818336459607
 20
231.608170731458
 10
-1244.7419826947
 20
231.415030176881
 10
-1244.6557071157
 20
231.226113010626
 10
-1244.559742306315
 20
231.041928519973
 10
-1244.454346970703
 20
230.862973233744
 10
-1244.339805236058
 20
230.689729583754
 10
-1244.216425886643
 20
230.522664604253
 10
-1244.084541531373
 20
230.362228672889
 10
-1243.944507707152
 20
230.208854296568
 10
-1243.796701920412
 20
230.062954945494
 10
-1243.641522629423
 20
229.924923938521
 10
-1243.479388170119
 20
229.795133382841
 10
-1243.310735628336
 20
229.673933170845
 10
-1243.13601966151
 20
229.561650036878
 10
-1242.955711272997
 20
229.458586676416
 10
-1242.770296542336
 20
229.365020930058
 10
-1242.580275314859
 20
229.281205034515
 10
-1242.386159854199
 20
229.207364942622
 10
-1242.188473461321
 20
229.143699714212
 10
-1241.987749063789
 20
229.090380979485
 10
-1241.78452777909
 20
229.047552476323
 10
-1241.57935745588
 20
229.015329662799
 10
-1241.372791197076
 20
228.993799405921
 10
-1241.165385868791
 20
228.983019747456
 10
-1240.957700599121
 20
228.983019747456
 10
-1240.750295270836
 20
228.993799405921
 10
-1240.543729012032
 20
229.015329662799
 10
-1240.338558688821
 20
229.047552476323
 10
-1240.135337404122
 20
229.090380979485
 10
-1239.93461300659
 20
229.143699714212
 10
-1239.736926613712
 20
229.207364942622
 10
-1239.542811153053
 20
229.281205034515
 10
-1239.352789925576
 20
229.365020930058
 10
-1239.167375194914
 20
229.458586676416
 10
-1238.987066806402
 20
229.561650036878
 10
-1238.812350839575
 20
229.673933170845
 10
-1238.643698297793
 20
229.795133382841
 10
-1238.481563838488
 20
229.924923938521
 10
-1238.326384547499
 20
230.062954945494
 10
-1238.17857876076
 20
230.208854296568
 10
-1238.038544936539
 20
230.362228672889
 10
-1237.906660581269
 20
230.522664604253
 10
-1237.783281231854
 20
230.689729583754
 10
-1237.668739497208
 20
230.862973233744
 10
-1237.563344161597
 20
231.041928519973
 10
-1237.467379352212
 20
231.226113010626
 10
-1237.381103773212
 20
231.415030176881
 10
-1237.304750008305
 20
231.608170731458
 10
-1237.238523893742
 20
231.805014001568
 10
-1237.18260396342
 20
232.005029332556
 10
-1237.137140967583
 20
232.207677518453
 10
-1237.102257466432
 20
232.412412255577
 10
-1237.078047499718
 20
232.618681615273
 10
-1237.06457633323
 20
232.825929531815
 10
-1237.061880282853
 20
233.033597301462
 10
-1237.06996661666
 20
233.241125088621
 10
-1237.088813535327
 20
233.447953435069
 10
-1237.118370230891
 20
233.65352476815
 10
-1237.158557023729
 20
233.857284903896
 10
-1237.20926557735
 20
234.058684541004
 10
-1237.27035919046
 20
234.25718074166
 10
-1237.341673165479
 20
234.452238395201
 10
-1237.423015252538
 20
234.643331660677
 10
-1237.514166167752
 20
234.829945384431
 10
-1237.614880184368
 20
235.011576488856
 10
-1237.724885795204
 20
235.187735328607
 10
-1237.843886444582
 20
235.357947010595
 10
-1237.97156132779
 20
235.52175267422
 10
-1238.107566255915
 20
235.678710728372
 10
-1238.251534583717
 20
235.828398041888
 10
-1238.403078198037
 20
235.970411084234
 10
-1238.561788564084
 20
236.104367013357
 10
-1238.727237826769
 20
236.229904707753
 10
-1238.898979964133
 20
236.346685739995
 10
-1239.076551989737
 20
236.454395289064
 10
-1239.259475200792
 20
236.552742989061
 10
-1239.447256468664
 20
236.641463711974
 10
-1239.639389568253
 20
236.720318282418
 10
-1239.835356542692
 20
236.789094122414
 10
-1240.034629099663
 20
236.847605824456
 10
-1240.236670035584
 20
236.895695651341
 10
-1240.440934683812
 20
236.933233961397
 10
-1240.646872382969
 20
236.960119557976
 10
-1240.853927961428
 20
236.976279962265
1001
TCAD
1000
TCW_ATTRIBUTE
1002
{
1000
Schraffur
1002
}
  0
HATCH
  5
268
100
AcDbEntity
  8
0
  6
CONTINUOUS
 62
           7
100
AcDbHatch
 10
0.0
 20
0.0
 30
0.0
210
0.0
220
0.0
230
1.0
  2
_U
 70
           0
 71
           1
 91
        1
 92
        3
 72
           0
 73
           1
 93
      121
 10
-1241.0615432339557
 20
236.98167160866984
 10
-1241.2691585064833
 20
236.9762799622651
 10
-1241.4762140849421
 20
236.9601195579765
 10
-1241.6821517840995
 20
236.93323396139675
 10
-1241.8864164323277
 20
236.89569565134093
 10
-1242.0884573682488
 20
236.84760582445637
 10
-1242.28772992522
 20
236.7890941224141
 10
-1242.4836968996583
 20
236.72031828241813
 10
-1242.6758299992471
 20
236.64146371197364
 10
-1242.863611267119
 20
236.5527429890613
 10
-1243.0465344781749
 20
236.45439528906439
 10
-1243.2241065037781
 20
236.34668573999454
 10
-1243.395848641142
 20
236.22990470775324
 10
-1243.5612979038278
 20
236.10436701335675
 10
-1243.7200082698744
 20
235.9704110842344
 10
-1243.8715518841946
 20
235.82839804188808
 10
-1244.0155202119963
 20
235.67871072837232
 10
-1244.1515251401217
 20
235.52175267421995
 10
-1244.2792000233296
 20
235.3579470105953
 10
-1244.3982006727074
 20
235.18773532860689
 10
-1244.5082062835436
 20
235.01157648885646
 10
-1244.60892030016
 20
234.82994538443143
 10
-1244.7000712153738
 20
234.64333166067735
 10
-1244.7814133024328
 20
234.45223839520071
 10
-1244.8527272774518
 20
234.25718074166031
 10
-1244.9138208905615
 20
234.05868454100437
 10
-1244.964529444183
 20
233.85728490389619
 10
-1245.0047162370201
 20
233.65352476815048
 10
-1245.0342729325848
 20
233.44795343506888
 10
-1245.0531198512513
 20
233.24112508862078
 10
-1245.0612061850588
 20
233.03359730146155
 10
-1245.0585101346815
 20
232.82592953181489
 10
-1245.0450389681937
 20
232.61868161527258
 10
-1245.0208290014793
 20
232.41241225557667
 10
-1244.9859455003284
 20
232.20767751845301
 10
-1244.9404825044919
 20
232.00502933255626
 10
-1244.8845625741696
 20
231.80501400156783
 10
-1244.8183364596068
 20
231.60817073145785
 10
-1244.7419826946998
 20
231.41503017688115
 10
-1244.6557071156999
 20
231.22611301062602
 10
-1244.5597423063145
 20
231.04192851997254
 10
-1244.4543469707032
 20
230.86297323374424
 10
-1244.3398052360576
 20
230.68972958375383
 10
-1244.216425886643
 20
230.52266460425261
 10
-1244.0845415313729
 20
230.3622286728887
 10
-1243.9445077071518
 20
230.20885429656829
 10
-1243.796701920412
 20
230.06295494549369
 10
-1243.6415226294234
 20
229.92492393852086
 10
-1243.4793881701191
 20
229.7951333828409
 10
-1243.310735628336
 20
229.67393317084532
 10
-1243.1360196615096
 20
229.56165003687778
 10
-1242.9557112729972
 20
229.45858667641596
 10
-1242.7702965423359
 20
229.36502093005845
 10
-1242.5802753148587
 20
229.2812050345151
 10
-1242.3861598541994
 20
229.20736494262189
 10
-1242.1884734613213
 20
229.14369971421183
 10
-1241.9877490637891
 20
229.09038097948485
 10
-1241.7845277790902
 20
229.04755247632312
 10
-1241.5793574558797
 20
229.01532966279916
 10
-1241.3727911970755
 20
228.99379940592138
 10
-1241.1653858687905
 20
228.98301974745578
 10
-1240.9577005991209
 20
228.98301974745578
 10
-1240.750295270836
 20
228.99379940592138
 10
-1240.5437290120317
 20
229.01532966279916
 10
-1240.3385586888212
 20
229.04755247632312
 10
-1240.1353374041223
 20
229.09038097948485
 10
-1239.9346130065901
 20
229.14369971421183
 10
-1239.7369266137121
 20
229.20736494262189
 10
-1239.5428111530528
 20
229.2812050345151
 10
-1239.3527899255757
 20
229.36502093005845
 10
-1239.1673751949143
 20
229.45858667641596
 10
-1238.9870668064018
 20
229.56165003687778
 10
-1238.8123508395754
 20
229.67393317084532
 10
-1238.6436982977925
 20
229.7951333828409
 10
-1238.481563838488
 20
229.92492393852086
 10
-1238.3263845474994
 20
230.06295494549374
 10
-1238.1785787607598
 20
230.20885429656829
 10
-1238.0385449365385
 20
230.3622286728887
 10
-1237.9066605812686
 20
230.52266460425261
 10
-1237.7832812318541
 20
230.68972958375383
 10
-1237.6687394972082
 20
230.86297323374424
 10
-1237.5633441615969
 20
231.04192851997254
 10
-1237.4673793522115
 20
231.22611301062602
 10
-1237.3811037732116
 20
231.41503017688115
 10
-1237.3047500083046
 20
231.6081707314579
 10
-1237.2385238937418
 20
231.80501400156783
 10
-1237.1826039634195
 20
232.00502933255626
 10
-1237.1371409675833
 20
232.20767751845301
 10
-1237.1022574664321
 20
232.41241225557667
 10
-1237.0780474997177
 20
232.61868161527258
 10
-1237.06457633323
 20
232.82592953181489
 10
-1237.0618802828526
 20
233.03359730146155
 10
-1237.0699666166602
 20
233.24112508862078
 10
-1237.0888135353266
 20
233.44795343506888
 10
-1237.1183702308913
 20
233.65352476815048
 10
-1237.1585570237285
 20
233.85728490389619
 10
-1237.2092655773499
 20
234.05868454100437
 10
-1237.2703591904597
 20
234.25718074166031
 10
-1237.3416731654786
 20
234.45223839520071
 10
-1237.4230152525377
 20
234.64333166067735
 10
-1237.5141661677515
 20
234.82994538443143
 10
-1237.6148801843678
 20
235.01157648885646
 10
-1237.724885795204
 20
235.18773532860689
 10
-1237.8438864445818
 20
235.3579470105953
 10
-1237.9715613277897
 20
235.52175267421995
 10
-1238.1075662559151
 20
235.67871072837227
 10
-1238.2515345837169
 20
235.82839804188808
 10
-1238.4030781980371
 20
235.9704110842344
 10
-1238.5617885640836
 20
236.10436701335675
 10
-1238.7272378267694
 20
236.22990470775324
 10
-1238.8989799641333
 20
236.34668573999454
 10
-1239.0765519897366
 20
236.45439528906439
 10
-1239.2594752007924
 20
236.55274298906124
 10
-1239.4472564686644
 20
236.64146371197364
 10
-1239.6393895682531
 20
236.72031828241813
 10
-1239.8353565426917
 20
236.7890941224141
 10
-1240.0346290996627
 20
236.84760582445637
 10
-1240.2366700355838
 20
236.89569565134093
 10
-1240.440934683812
 20
236.9332339613967
 10
-1240.6468723829694
 20
236.96011955797644
 10
-1240.8539279614281
 20
236.9762799622651
 97
        1
330
269
 75
           0
 76
           0
 52
45.000001252239
 41
2.0
 77
           0
 78
           1
 53
45.000001252239
 43
0.0
 44
0.0
 45
-1.414213593281715
 46
1.4142135314644744
 79
           0
 98
        0
1001
TCAD
1000
TCW_ATTRIBUTE
1002
{
1000
Schraffur
1002
}
  0
LINE
  5
26A
102
{ACAD_REACTORS
330
26C
102
}
100
AcDbEntity
  8
0
  6
STRICHPUNKT
 48
0.20000000298
100
AcDbLine
 10
-1217.094095317289
 20
193.48167160867
 30
0.0
 11
-1217.094095317289
 21
202.415635177058
 31
0.0
1001
ACAD
1000
TCW40_DEV_WIDTH
1002
{
1040
0.003937007859
1002
}
1001
TCAD
1000
TCW_ATTRIBUTE
1002
{
1000
Linie
1002
}
  0
LINE
  5
26B
102
{ACAD_REACTORS
330
26C
102
}
100
AcDbEntity
  8
0
  6
STRICHPUNKT
 48
0.20000000298
100
AcDbLine
 10
-1265.061543233956
 20
193.48167160867
 30
0.0
 11
-1265.061543233956
 21
202.72770077237
 31
0.0
1001
ACAD
1000
TCW40_DEV_WIDTH
1002
{
1040
0.003937007859
1002
}
1001
TCAD
1000
TCW_ATTRIBUTE
1002
{
1000
Linie
1002
}
  0
LINE
  5
26D
100
AcDbEntity
  8
KAUFTEIL
  6
CONTINUOUS
 48
0.20000000298
100
AcDbLine
 10
-1179.561543233956
 20
-6.61832839133
 30
0.0
 11
-1179.561543233956
 21
23.38167160867
 31
0.0
1001
ACAD
1000
TCW40_DEV_WIDTH
1002
{
1040
0.011811023578
1002
}
1001
TCAD
1000
TCW_ATTRIBUTE
1002
{
1000
Linie
1002
}
1000
TCW_CUSTOM_DATA
1002
{
1000
#$AUX@_ToolInfo Properties
1070
           8
1000
Ändern^J2Linienzusammenführen@2Linienzusammenführen
1002
}
  0
LINE
  5
26E
100
AcDbEntity
  8
0
  6
STRICHPUNKT
 48
0.20000000298
100
AcDbLine
 10
-912.599150237143
 20
52.084918278474
 30
0.0
 11
-916.30025500287
 21
-41.059551658992
 31
0.0
1001
ACAD
1000
TCW40_DEV_WIDTH
1002
{
1040
0.003937007859
1002
}
1001
TCAD
1000
TCW_ATTRIBUTE
1002
{
1000
Linie
1002
}
1000
TCW_CUSTOM_DATA
1002
{
1000
#$AUX@_ToolInfo Properties
1070
           8
1000
Einfügen^JLinie^JEinfach@Linie Einfach
1002
}
  0
LINE
  5
26F
100
AcDbEntity
  8
F_HRUNG
  6
CONTINUOUS
 48
0.20000000298
100
AcDbLine
 10
-912.74629911144
 20
48.381671608657
 30
0.0
 11
-1031.561543233955
 21
48.381671608657
 31
0.0
1001
ACAD
1000
TCW40_DEV_WIDTH
1002
{
1040
0.011811023578
1002
}
1001
TCAD
1000
TCW_ATTRIBUTE
1002
{
1000
Linie
1002
}
  0
LINE
  5
270
100
AcDbEntity
  8
0
  6
STRICHPUNKT
 48
0.20000000298
100
AcDbLine
 10
-1296.591395571131
 20
8.38167160867
 30
0.0
 11
-914.33570308495
 21
8.38167160867
 31
0.0
1001
ACAD
1000
TCW40_DEV_WIDTH
1002
{
1040
0.003937007859
1002
}
1001
TCAD
1000
TCW_ATTRIBUTE
1002
{
1000
Linie
1002
}
1000
TCW_CUSTOM_DATA
1002
{
1000
#$AUX@_ToolInfo Properties
1070
           8
1000
Einfügen^JLinie^JParallellinie@Linie Parallellinie
1002
}
  0
LINE
  5
271
100
AcDbEntity
  8
F_HRUNG
  6
CONTINUOUS
 48
0.20000000298
100
AcDbLine
 10
-1031.561543233955
 20
-31.618328391343
 30
0.0
 11
-915.92510705846
 21
-31.618328391343
 31
0.0
1001
ACAD
1000
TCW40_DEV_WIDTH
1002
{
1040
0.011811023578
1002
}
1001
TCAD
1000
TCW_ATTRIBUTE
1002
{
1000
Linie
1002
}
  0
LINE
  5
272
100
AcDbEntity
  8
F_HRUNG
  6
CONTINUOUS
 48
0.20000000298
100
AcDbLine
 10
-964.561543233955
 20
-35.618328391343
 30
0.0
 11
-916.084047455811
 21
-35.618328391343
 31
0.0
1001
ACAD
1000
TCW40_DEV_WIDTH
1002
{
1040
0.011811023578
1002
}
1001
TCAD
1000
TCW_ATTRIBUTE
1002
{
1000
Linie
1002
}
  0
DIMENSION
  5
27F
100
AcDbEntity
  8
0
  6
CONTINUOUS
 62
           7
100
AcDbDimension
  2
*D0
 10
-1270.061543233956
 20
284.864601615556
 30
0.0
 11
-1241.061543233956
 21
284.864601615556
 31
0.0
 70
         128
  1
%%c<>
  3
STANDARD
100
AcDbAlignedDimension
 13
-1212.061543233956
 23
249.48167160867
 33
0.0
 14
-1270.061543233956
 24
249.48167160867
 34
0.0
100
AcDbRotatedDimension
1001
TCAD
1000
TCW_CUSTOM_DATA
1002
{
1000
#$AUX@_ToolInfo Properties
1070
           8
1000
Einfügen^JBemaßung^JOrthogonal@Bemaßung Orthogonal
1002
}
1001
ACAD
1000
DSTYLE
1002
{
1070
         148
1040
0.01
1070
          73
1070
           0
1070
         174
1070
           1
1070
          74
1070
           0
1002
}
  0
DIMENSION
  5
28C
100
AcDbEntity
  8
0
  6
CONTINUOUS
 62
           7
100
AcDbDimension
  2
*D1
 10
-1335.33591101063
 20
249.48167160867
 30
0.0
 11
-1335.33591101063
 21
208.08167160867
 31
0.0
 70
         128
  1
80
  3
STANDARD
100
AcDbAlignedDimension
 13
-1256.061543233956
 23
166.68167160867
 33
0.0
 14
-1270.061543233956
 24
249.48167160867
 34
0.0
 50
-90.0
100
AcDbRotatedDimension
1001
TCAD
1000
TCW_CUSTOM_DATA
1002
{
1000
#$AUX@_ToolInfo Properties
1070
           8
1000
Einfügen^JBemaßung^JOrthogonal@Bemaßung Orthogonal
1002
}
1001
ACAD
1000
DSTYLE
1002
{
1070
         148
1040
0.01
1070
          45
1040
1.0
1070
          73
1070
           0
1070
         174
1070
           1
1070
          74
1070
           0
1002
}
  0
DIMENSION
  5
299
100
AcDbEntity
  8
0
  6
CONTINUOUS
 62
           7
100
AcDbDimension
  2
*D2
 10
-1335.33591101063
 20
166.68167160867
 30
0.0
 11
-1335.33591101063
 21
106.53167160867
 31
0.0
 70
         128
  1
<>
  3
STANDARD
100
AcDbAlignedDimension
 13
-1290.061543233956
 23
46.38167160867
 33
0.0
 14
-1241.061543233956
 24
166.68167160867
 34
0.0
 50
-90.0
100
AcDbRotatedDimension
1001
TCAD
1000
TCW_CUSTOM_DATA
1002
{
1000
#$AUX@_ToolInfo Properties
1070
           8
1000
Einfügen^JBemaßung^JOrthogonal@Bemaßung Orthogonal
1002
}
1001
ACAD
1000
DSTYLE
1002
{
1070
         148
1040
0.01
1070
          45
1040
0.5
1070
          73
1070
           0
1070
         174
1070
           1
1070
          74
1070
           0
1002
}
  0
DIMENSION
  5
2A6
100
AcDbEntity
  8
0
  6
CONTINUOUS
 62
           7
100
AcDbDimension
  2
*D3
 10
-1335.33591101063
 20
-29.61832839133
 30
0.0
 11
-1335.33591101063
 21
8.38167160867
 31
0.0
 70
         129
  1
<>
  3
STANDARD
100
AcDbAlignedDimension
 13
-1290.061543233956
 23
46.38167160867
 33
0.0
 14
-1290.061543233956
 24
-29.61832839133
 34
0.0
 50
-90.0
1001
TCAD
1000
TCW_CUSTOM_DATA
1002
{
1000
#$AUX@_ToolInfo Properties
1070
           8
1000
Einfügen^JBemaßung^JOrthogonal@Bemaßung Orthogonal
1002
}
1001
ACAD
1000
DSTYLE
1002
{
1070
         148
1040
0.01
1070
          73
1070
           0
1070
         174
1070
           1
1070
          74
1070
           0
1002
}
  0
DIMENSION
  5
2B3
100
AcDbEntity
  8
0
  6
CONTINUOUS
 62
           7
100
AcDbDimension
  2
*D4
 10
-1291.061543233955
 20
-70.095132588344
 30
0.0
 11
-1266.061543233956
 21
-70.095132588344
 31
0.0
  1
<>
  3
STANDARD
100
AcDbAlignedDimension
 13
-1241.061543233956
 23
-44.61832839133
 33
0.0
 14
-1291.061543233955
 24
-28.61832839133
 34
0.0
100
AcDbRotatedDimension
1001
TCAD
1000
TCW_CUSTOM_DATA
1002
{
1000
#$AUX@_ToolInfo Properties
1070
           8
1000
Einfügen^JBemaßung^JOrthogonal@Bemaßung Orthogonal
1002
}
1001
ACAD
1000
DSTYLE
1002
{
1070
         148
1040
0.01
1070
          73
1070
           0
1070
         174
1070
           1
1070
          74
1070
           0
1002
}
  0
DIMENSION
  5
2C0
100
AcDbEntity
  8
0
  6
CONTINUOUS
 62
           7
100
AcDbDimension
  2
*D5
 10
-1291.061543233956
 20
307.481458343039
 30
0.0
 11
-1266.061543233956
 21
307.481458343039
 31
0.0
 70
         128
  1
<>
  3
STANDARD
100
AcDbAlignedDimension
 13
-1241.061543233956
 23
166.68167160867
 33
0.0
 14
-1291.061543233956
 24
161.68167160867
 34
0.0
 50
180.0
100
AcDbRotatedDimension
1001
TCAD
1000
TCW_CUSTOM_DATA
1002
{
1000
#$AUX@_ToolInfo Properties
1070
           8
1000
Einfügen^JBemaßung^JOrthogonal@Bemaßung Orthogonal
1002
}
1001
ACAD
1000
DSTYLE
1002
{
1070
         148
1040
0.01
1070
          73
1070
           0
1070
         174
1070
           1
1070
          74
1070
           0
1002
}
  0
DIMENSION
  5
2CD
100
AcDbEntity
  8
0
  6
CONTINUOUS
 62
           7
100
AcDbDimension
  2
*D6
 10
-1158.561543233956
 20
307.481458343039
 30
0.0
 11
-1199.811543233956
 21
307.481458343039
 31
0.0
 70
         128
  1
<>
  3
STANDARD
100
AcDbAlignedDimension
 13
-1241.061543233956
 23
181.48167160867
 33
0.0
 14
-1158.561543233956
 24
161.68167160867
 34
0.0
100
AcDbRotatedDimension
1001
TCAD
1000
TCW_CUSTOM_DATA
1002
{
1000
#$AUX@_ToolInfo Properties
1070
           8
1000
Einfügen^JBemaßung^JOrthogonal@Bemaßung Orthogonal
1002
}
1001
ACAD
1000
DSTYLE
1002
{
1070
         148
1040
0.01
1070
          73
1070
           0
1070
         174
1070
           1
1070
          74
1070
           0
1002
}
  0
DIMENSION
  5
2DA
100
AcDbEntity
  8
0
  6
CONTINUOUS
 62
           7
100
AcDbDimension
  2
*D7
 10
-1041.499473084112
 20
185.68167160867
 30
0.0
 11
-1041.499473084112
 21
116.68167160867
 31
0.0
  1
D
  3
STANDARD
100
AcDbAlignedDimension
 13
-1121.561543233956
 23
47.68167160867
 33
0.0
 14
-1049.061543233956
 24
185.68167160867
 34
0.0
 50
90.0
100
AcDbRotatedDimension
1001
TCAD
1000
TCW_CUSTOM_DATA
1002
{
1000
#$AUX@_ToolInfo Properties
1070
           8
1000
Einfügen^JBemaßung^JOrthogonal@Bemaßung Orthogonal
1002
}
1001
ACAD
1000
DSTYLE
1002
{
1070
         148
1040
0.01
1070
          73
1070
           0
1070
         174
1070
           1
1070
          74
1070
           0
1002
}
  0
DIMENSION
  5
2E7
100
AcDbEntity
  8
0
  6
CONTINUOUS
 62
           7
100
AcDbDimension
  2
*D8
 10
-938.561543233956
 20
307.481458343039
 30
0.0
 11
-1048.561543233956
 21
307.481458343039
 31
0.0
 70
         128
  1
L
  3
STANDARD
100
AcDbAlignedDimension
 13
-1158.561543233956
 23
161.68167160867
 33
0.0
 14
-938.561543233956
 24
116.68167160867
 34
0.0
100
AcDbRotatedDimension
1001
TCAD
1000
TCW_CUSTOM_DATA
1002
{
1000
#$AUX@_ToolInfo Properties
1070
           8
1000
Einfügen^JBemaßung^JOrthogonal@Bemaßung Orthogonal
1002
}
1001
ACAD
1000
DSTYLE
1002
{
1070
         148
1040
0.01
1070
          73
1070
           0
1070
         174
1070
           1
1070
          74
1070
           0
1002
}
  0
DIMENSION
  5
2F4
100
AcDbEntity
  8
0
  6
CONTINUOUS
 62
           7
100
AcDbDimension
  2
*D9
 10
-1314.886232420411
 20
116.68167160867
 30
0.0
 11
-1314.886232420411
 21
81.53167160867
 31
0.0
  1
<>
  3
STANDARD
100
AcDbAlignedDimension
 13
-1290.061543233956
 23
46.38167160867
 33
0.0
 14
-1289.061543233956
 24
116.68167160867
 34
0.0
 50
-90.0
100
AcDbRotatedDimension
1001
TCAD
1000
TCW_CUSTOM_DATA
1002
{
1000
#$AUX@_ToolInfo Properties
1070
           8
1000
Einfügen^JBemaßung^JOrthogonal@Bemaßung Orthogonal
1002
}
1001
ACAD
1000
DSTYLE
1002
{
1070
         148
1040
0.01
1070
          45
1040
0.5
1070
          73
1070
           0
1070
         174
1070
           1
1070
          74
1070
           0
1002
}
  0
DIMENSION
  5
303
100
AcDbEntity
  8
0
  6
CONTINUOUS
 62
           7
100
AcDbDimension
  2
*D10
 10
-797.390500119793
 20
284.864601615556
 30
0.0
 11
-782.890500119793
 21
284.864601615556
 31
0.0
 70
         128
  1
<>
  3
STANDARD
100
AcDbAlignedDimension
 13
-768.390500119793
 23
116.68167160867
 33
0.0
 14
-797.390500119793
 24
116.68167160867
 34
0.0
100
AcDbRotatedDimension
1001
TCAD
1000
TCW_CUSTOM_DATA
1002
{
1000
#$AUX@_ToolInfo Properties
1070
           8
1000
Einfügen^JBemaßung^JOrthogonal@Bemaßung Orthogonal
1002
}
1001
ACAD
1000
DSTYLE
1002
{
1070
         148
1040
0.01
1070
          73
1070
           0
1070
         174
1070
           1
1070
          74
1070
           0
1002
}
  0
DIMENSION
  5
310
100
AcDbEntity
  8
0
  6
CONTINUOUS
 62
           7
100
AcDbDimension
  2
*D11
 10
-835.390500119793
 20
307.481458343039
 30
0.0
 11
-801.890500119793
 21
307.481458343039
 31
0.0
 70
         128
  1
<>
  3
STANDARD
100
AcDbAlignedDimension
 13
-768.390500119793
 23
116.68167160867
 33
0.0
 14
-835.390500119793
 24
116.68167160867
 34
0.0
100
AcDbRotatedDimension
1001
TCAD
1000
TCW_CUSTOM_DATA
1002
{
1000
#$AUX@_ToolInfo Properties
1070
           8
1000
Einfügen^JBemaßung^JOrthogonal@Bemaßung Orthogonal
1002
}
1001
ACAD
1000
DSTYLE
1002
{
1070
         148
1040
0.01
1070
          73
1070
           0
1070
         174
1070
           1
1070
          74
1070
           0
1002
}
  0
DIMENSION
  5
31D
100
AcDbEntity
  8
0
  6
CONTINUOUS
 62
           7
100
AcDbDimension
  2
*D12
 10
-718.390500119793
 20
327.676359066296
 30
0.0
 11
-776.890500119793
 21
327.676359066296
 31
0.0
 70
         128
  1
<>
  3
STANDARD
100
AcDbAlignedDimension
 13
-835.390500119793
 23
116.68167160867
 33
0.0
 14
-718.390500119793
 24
154.18167160867
 34
0.0
100
AcDbRotatedDimension
1001
TCAD
1000
TCW_CUSTOM_DATA
1002
{
1000
#$AUX@_ToolInfo Properties
1070
           8
1000
Einfügen^JBemaßung^JOrthogonal@Bemaßung Orthogonal
1002
}
1001
ACAD
1000
DSTYLE
1002
{
1070
         148
1040
0.01
1070
          73
1070
           0
1070
         174
1070
           1
1070
          74
1070
           0
1002
}
  0
DIMENSION
  5
32A
100
AcDbEntity
  8
0
  6
CONTINUOUS
 62
           7
100
AcDbDimension
  2
*D13
 10
-866.390500119793
 20
265.92981625907
 30
0.0
 11
-817.390500119793
 21
265.92981625907
 31
0.0
  1
<>
  3
STANDARD
100
AcDbAlignedDimension
 13
-768.390500119793
 23
249.48167160867
 33
0.0
 14
-866.390500119793
 24
232.98167160867
 34
0.0
100
AcDbRotatedDimension
1001
TCAD
1000
TCW_CUSTOM_DATA
1002
{
1000
#$AUX@_ToolInfo Properties
1070
           8
1000
Einfügen^JBemaßung^JOrthogonal@Bemaßung Orthogonal
1002
}
1001
ACAD
1000
DSTYLE
1002
{
1070
         148
1040
0.01
1070
          73
1070
           0
1070
         174
1070
           1
1070
          74
1070
           0
1002
}
  0
LINE
  5
32B
102
{ACAD_REACTORS
330
33B
102
}
100
AcDbEntity
  8
ENDSCHALTER
  6
CONTINUOUS
 48
0.20000000298
100
AcDbLine
 10
-1106.886919094562
 20
-21.61832839133
 30
0.0
 11
-1068.886919094562
 21
-21.61832839133
 31
0.0
1001
ACAD
1000
TCW40_DEV_WIDTH
1002
{
1040
0.011811023578
1002
}
1001
TCAD
1000
TCW_ATTRIBUTE
1002
{
1000
Linie
1002
}
  0
ARC
  5
32C
102
{ACAD_REACTORS
330
33B
102
}
100
AcDbEntity
  8
ENDSCHALTER
  6
CONTINUOUS
 48
0.20000000298
100
AcDbCircle
 10
-1068.886919094562
 20
-38.61832839133
 30
0.0
 40
1.0
100
AcDbArc
 50
-90.0
 51
0.0
1001
ACAD
1000
TCW40_DEV_WIDTH
1002
{
1040
0.011811023578
1002
}
1001
TCAD
1000
TCW_ATTRIBUTE
1002
{
1000
Linie
1002
}
  0
LINE
  5
32D
102
{ACAD_REACTORS
330
33B
102
}
100
AcDbEntity
  8
ENDSCHALTER
  6
CONTINUOUS
 48
0.20000000298
100
AcDbLine
 10
-1106.886919094562
 20
-39.61832839133
 30
0.0
 11
-1068.886919094562
 21
-39.61832839133
 31
0.0
1001
ACAD
1000
TCW40_DEV_WIDTH
1002
{
1040
0.011811023578
1002
}
1001
TCAD
1000
TCW_ATTRIBUTE
1002
{
1000
Linie
1002
}
  0
ARC
  5
32E
102
{ACAD_REACTORS
330
33B
102
}
100
AcDbEntity
  8
ENDSCHALTER
  6
CONTINUOUS
 48
0.20000000298
100
AcDbCircle
 10
-1106.886919094562
 20
-22.61832839133
 30
0.0
 40
1.0
100
AcDbArc
 50
90.0
 51
180.0
1001
ACAD
1000
TCW40_DEV_WIDTH
1002
{
1040
0.011811023578
1002
}
1001
TCAD
1000
TCW_ATTRIBUTE
1002
{
1000
Linie
1002
}
  0
ARC
  5
32F
102
{ACAD_REACTORS
330
33B
102
}
100
AcDbEntity
  8
ENDSCHALTER
  6
CONTINUOUS
 48
0.20000000298
100
AcDbCircle
 10
-1106.886919094562
 20
-38.61832839133
 30
0.0
 40
1.0
100
AcDbArc
 50
180.0
 51
270.0
1001
ACAD
1000
TCW40_DEV_WIDTH
1002
{
1040
0.011811023578
1002
}
1001
TCAD
1000
TCW_ATTRIBUTE
1002
{
1000
Linie
1002
}
  0
LINE
  5
330
102
{ACAD_REACTORS
330
33B
102
}
100
AcDbEntity
  8
ENDSCHALTER
  6
CONTINUOUS
 48
0.20000000298
100
AcDbLine
 10
-1107.886919094562
 20
-22.61832839133
 30
0.0
 11
-1107.886919094562
 21
-38.61832839133
 31
0.0
1001
ACAD
1000
TCW40_DEV_WIDTH
1002
{
1040
0.011811023578
1002
}
1001
TCAD
1000
TCW_ATTRIBUTE
1002
{
1000
Linie
1002
}
  0
ARC
  5
331
102
{ACAD_REACTORS
330
33B
102
}
100
AcDbEntity
  8
ENDSCHALTER
  6
CONTINUOUS
 48
0.20000000298
100
AcDbCircle
 10
-1068.886919094562
 20
-22.61832839133
 30
0.0
 40
1.0
100
AcDbArc
 50
0.0
 51
90.0
1001
ACAD
1000
TCW40_DEV_WIDTH
1002
{
1040
0.011811023578
1002
}
1001
TCAD
1000
TCW_ATTRIBUTE
1002
{
1000
Linie
1002
}
  0
ARC
  5
332
102
{ACAD_REACTORS
330
33B
102
}
100
AcDbEntity
  8
ENDSCHALTER
  6
CONTINUOUS
 48
0.20000000298
100
AcDbCircle
 10
-1087.886919094562
 20
-30.61832839133
 30
0.0
 40
6.0
100
AcDbArc
 50
9.594068226861
 51
350.405931773139
1001
ACAD
1000
TCW40_DEV_WIDTH
1002
{
1040
0.011811023578
1002
}
1001
TCAD
1000
TCW_ATTRIBUTE
1002
{
1000
Kreis / Bogen
1002
}
  0
LINE
  5
333
102
{ACAD_REACTORS
330
33B
102
}
100
AcDbEntity
  8
ENDSCHALTER
  6
CONTINUOUS
 48
0.20000000298
100
AcDbLine
 10
-1081.970839311462
 20
-29.61832839133
 30
0.0
 11
-1067.886919094562
 21
-29.61832839133
 31
0.0
1001
ACAD
1000
TCW40_DEV_WIDTH
1002
{
1040
0.011811023578
1002
}
1001
TCAD
1000
TCW_ATTRIBUTE
1002
{
1000
Linie
1002
}
  0
LINE
  5
334
102
{ACAD_REACTORS
330
33B
102
}
100
AcDbEntity
  8
ENDSCHALTER
  6
CONTINUOUS
 48
0.20000000298
100
AcDbLine
 10
-1081.970839311462
 20
-31.61832839133
 30
0.0
 11
-1067.886919094562
 21
-31.61832839133
 31
0.0
1001
ACAD
1000
TCW40_DEV_WIDTH
1002
{
1040
0.011811023578
1002
}
1001
TCAD
1000
TCW_ATTRIBUTE
1002
{
1000
Linie
1002
}
  0
LINE
  5
335
102
{ACAD_REACTORS
330
33B
102
}
100
AcDbEntity
  8
ENDSCHALTER
  6
STRICHPUNKT
 48
0.20000000298
100
AcDbLine
 10
-1093.886919094562
 20
-30.61832839133
 30
0.0
 11
-1081.886919094562
 21
-30.61832839133
 31
0.0
1001
ACAD
1000
TCW40_DEV_WIDTH
1002
{
1040
0.003937007859
1002
}
1001
TCAD
1000
TCW_ATTRIBUTE
1002
{
1000
Linie
1002
}
  0
LINE
  5
336
102
{ACAD_REACTORS
330
33B
102
}
100
AcDbEntity
  8
ENDSCHALTER
  6
STRICHPUNKT
 48
0.20000000298
100
AcDbLine
 10
-1087.886919094562
 20
-24.61832839133
 30
0.0
 11
-1087.886919094562
 21
-36.61832839133
 31
0.0
1001
ACAD
1000
TCW40_DEV_WIDTH
1002
{
1040
0.003937007859
1002
}
1001
TCAD
1000
TCW_ATTRIBUTE
1002
{
1000
Linie
1002
}
  0
LINE
  5
337
102
{ACAD_REACTORS
330
33B
102
}
100
AcDbEntity
  8
ENDSCHALTER
  6
CONTINUOUS
 48
0.20000000298
100
AcDbLine
 10
-1067.886919094562
 20
-22.61832839133
 30
0.0
 11
-1067.886919094562
 21
-29.61832839133
 31
0.0
1001
ACAD
1000
TCW40_DEV_WIDTH
1002
{
1040
0.011811023578
1002
}
1001
TCAD
1000
TCW_ATTRIBUTE
1002
{
1000
Linie
1002
}
  0
LINE
  5
338
102
{ACAD_REACTORS
330
33B
102
}
100
AcDbEntity
  8
ENDSCHALTER
  6
CONTINUOUS
 48
0.20000000298
100
AcDbLine
 10
-1067.886919094562
 20
-31.61832839133
 30
0.0
 11
-1067.886919094562
 21
-38.61832839133
 31
0.0
1001
ACAD
1000
TCW40_DEV_WIDTH
1002
{
1040
0.011811023578
1002
}
1001
TCAD
1000
TCW_ATTRIBUTE
1002
{
1000
Linie
1002
}
  0
LINE
  5
339
102
{ACAD_REACTORS
330
33B
102
}
100
AcDbEntity
  8
ENDSCHALTER
  6
STRICHPUNKT
 48
0.20000000298
100
AcDbLine
 10
-1101.886919094562
 20
-39.61832839133
 30
0.0
 11
-1101.886919094562
 21
-21.61832839133
 31
0.0
1001
ACAD
1000
TCW40_DEV_WIDTH
1002
{
1040
0.003937007859
1002
}
1001
TCAD
1000
TCW_ATTRIBUTE
1002
{
1000
Linie
1002
}
  0
LINE
  5
33A
102
{ACAD_REACTORS
330
33B
102
}
100
AcDbEntity
  8
ENDSCHALTER
  6
STRICHPUNKT
 48
0.20000000298
100
AcDbLine
 10
-1073.886919094562
 20
-39.61832839133
 30
0.0
 11
-1073.886919094562
 21
-21.61832839133
 31
0.0
1001
ACAD
1000
TCW40_DEV_WIDTH
1002
{
1040
0.003937007859
1002
}
1001
TCAD
1000
TCW_ATTRIBUTE
1002
{
1000
Linie
1002
}
  0
DIMENSION
  5
349
100
AcDbEntity
  8
0
  6
CONTINUOUS
 62
           7
100
AcDbDimension
  2
*D14
 10
-1130.162859487315
 20
-39.61832839133
 30
0.0
 11
-1130.162859487315
 21
-57.744549094455
 31
0.0
 70
           1
  1
<>
  3
STANDARD
100
AcDbAlignedDimension
 13
-1101.886919094562
 23
-21.61832839133
 33
0.0
 14
-1101.886919094562
 24
-39.61832839133
 34
0.0
 50
-90.0
1001
TCAD
1000
TCW_CUSTOM_DATA
1002
{
1000
#$AUX@_ToolInfo Properties
1070
           8
1000
Einfügen^JBemaßung^JOrthogonal@Bemaßung Orthogonal
1002
}
1001
ACAD
1000
DSTYLE
1002
{
1070
         148
1040
0.01
1070
          73
1070
           0
1070
          74
1070
           0
1002
}
  0
DIMENSION
  5
356
100
AcDbEntity
  8
0
  6
CONTINUOUS
 62
           7
100
AcDbDimension
  2
*D15
 10
-1067.886919094562
 20
-71.366589490476
 30
0.0
 11
-1087.886919094562
 21
-71.366589490476
 31
0.0
  1
<>
  3
STANDARD
100
AcDbAlignedDimension
 13
-1107.886919094562
 23
-38.61832839133
 33
0.0
 14
-1067.886919094562
 24
-38.61832839133
 34
0.0
100
AcDbRotatedDimension
1001
TCAD
1000
TCW_CUSTOM_DATA
1002
{
1000
#$AUX@_ToolInfo Properties
1070
           8
1000
Einfügen^JBemaßung^JOrthogonal@Bemaßung Orthogonal
1002
}
1001
ACAD
1000
DSTYLE
1002
{
1070
         148
1040
0.01
1070
          73
1070
           0
1070
         174
1070
           1
1070
          74
1070
           0
1002
}
  0
LEADER
  5
357
100
AcDbEntity
  8
0
  6
CONTINUOUS
 62
           7
100
AcDbLeader
  3
STANDARD
 73
           3
 74
           0
 75
           0
 40
0.0
 76
           3
 10
-1081.762404299695
 20
-34.947337345751
 30
0.0
 10
-1023.042619588348
 20
-76.452416904077
 30
0.0
 10
-1015.542619588348
 20
-76.452416904077
 30
0.0
 77
           7
211
0.0001
221
0.0
231
0.0
1001
TCAD
1000
TCW_CUSTOM_DATA
1002
{
1000
#$AUX@_ToolInfo Properties
1070
           8
1000
Einfügen^JBemaßung^JFührungslinie@Bemaßung Führungslinie
1002
}
1001
ACAD
1000
DSTYLE
1002
{
1070
         148
1040
0.01
1002
}
  0
MTEXT
  5
358
100
AcDbEntity
  8
0
  6
CONTINUOUS
100
AcDbMText
 10
-1010.542619588348
 20
-76.452416904077
 30
0.0
 40
7.5
 41
0.0
 71
           4
 72
           1
  1
\A1;Induktivschalter M12 x 1
1001
TCAD
1000
TCW_REFPOINT
1002
{
1010
-1010.542619588348
1020
-76.452416904077
1030
0.0
1002
}
1000
TCW_ATTRIBUTE
1002
{
1000
Induktivschalter M12 x 1
1002
}
1000
TCW40_TEXT
1002
{
1000
IsonormD
1070
           0
1070
         513
1002
}
  0
ENDSEC
  0
SECTION
  2
OBJECTS
  0
DICTIONARY
  5
19
100
AcDbDictionary
  3
ACAD_GROUP
350
1A
  3
ACAD_MLINESTYLE
350
1B
  0
DICTIONARY
  5
1A
102
{ACAD_REACTORS
330
19
102
}
100
AcDbDictionary
  3
GRUPPE_6
350
9F
  3
GRUPPE_1
350
AF
  3
INB.M8
350
CF
  3
INB.M8
350
D4
  3
GRUPPE_7
350
142
  3
GRUPPE_6
350
147
  3
GRUPPE_1
350
169
  3
GRUPPE_11
350
1CE
  3
M6
350
1DA
  3
GRUPPE_8
350
1EC
  3
GRUPPE_7
350
1FA
  3
INB.M6
350
1FF
  3
INB.M6
350
204
  3
INB.M6
350
209
  3
INB.M6
350
20E
  3
M8
350
226
  3
M8
350
22B
  3
M8
350
230
  3
M8
350
235
  3
M8
350
249
  3
M8
350
251
  3
GRUPPE_3
350
26C
  3
HALTER 12
350
33B
  0
DICTIONARY
  5
1B
102
{ACAD_REACTORS
330
19
102
}
100
AcDbDictionary
  3
STANDARD
350
1C
  0
MLINESTYLE
  5
1C
100
AcDbMlineStyle
  2
STANDARD
 70
           0
  3

 62
         256
 51
90.0
 52
90.0
 71
           3
 49
5.0
 62
           7
  6
BYLAYER
 49
0.0
 62
           7
  6
BYLAYER
 49
-5.0
 62
           7
  6
BYLAYER
  0
GROUP
  5
9F
102
{ACAD_REACTORS
330
1A
102
}
100
AcDbGroup
300

 70
           0
 71
           1
340
8B
340
8C
340
8D
340
8E
340
8F
340
90
340
91
340
92
340
93
340
94
340
95
340
96
340
97
340
98
340
99
340
9A
340
9B
340
9C
340
9D
340
9E
  0
GROUP
  5
AF
102
{ACAD_REACTORS
330
1A
102
}
100
AcDbGroup
300

 70
           0
 71
           1
340
A0
340
A1
340
A2
340
A3
340
A4
340
A5
340
A6
340
A7
340
A8
340
A9
340
AA
340
AB
340
AC
340
AD
340
AE
  0
GROUP
  5
CF
102
{ACAD_REACTORS
330
1A
102
}
100
AcDbGroup
300

 70
           0
 71
           1
340
CB
340
CC
340
CD
340
CE
  0
GROUP
  5
D4
102
{ACAD_REACTORS
330
1A
102
}
100
AcDbGroup
300

 70
           0
 71
           1
340
D0
340
D1
340
D2
340
D3
  0
GROUP
  5
142
102
{ACAD_REACTORS
330
1A
102
}
100
AcDbGroup
300

 70
           0
 71
           1
340
E0
340
E1
340
E2
340
E3
340
E4
340
E5
340
E6
340
E7
340
E8
340
E9
340
EA
340
EB
340
EC
340
ED
340
EE
340
EF
340
F0
340
F1
340
F2
340
F3
340
F4
340
F5
340
F6
340
F7
340
F8
340
F9
340
FA
340
FB
340
FC
340
FD
340
FE
340
FF
340
100
340
101
340
102
340
103
340
104
340
105
340
106
340
107
340
108
340
109
340
10A
340
10B
340
10C
340
10D
340
10E
340
10F
340
110
340
111
340
112
340
113
340
114
340
115
340
116
340
117
340
118
340
119
340
11A
340
11B
340
11C
340
11D
340
11E
340
11F
340
120
340
121
340
122
340
123
340
124
340
125
340
126
340
127
340
128
340
129
340
12A
340
12B
340
12C
340
12D
340
12E
340
12F
340
130
340
131
340
132
340
133
340
134
340
135
340
136
340
137
340
138
340
139
340
13A
340
13B
340
13C
340
13D
340
13E
340
13F
340
140
340
141
  0
GROUP
  5
147
102
{ACAD_REACTORS
330
1A
102
}
100
AcDbGroup
300

 70
           0
 71
           1
340
143
340
144
340
145
340
146
  0
GROUP
  5
169
102
{ACAD_REACTORS
330
1A
102
}
100
AcDbGroup
300

 70
           0
 71
           1
340
148
340
149
340
14A
340
14B
340
14C
340
14D
340
14E
340
14F
340
150
340
151
340
152
340
153
340
154
340
155
340
156
340
157
340
158
340
159
340
15A
340
15B
340
15C
340
15D
340
15E
340
15F
340
160
340
161
340
162
340
163
340
164
340
165
340
166
340
167
340
168
  0
GROUP
  5
1CE
102
{ACAD_REACTORS
330
1A
102
}
100
AcDbGroup
300

 70
           0
 71
           1
340
16A
340
16B
340
16C
340
16D
340
16E
340
16F
340
170
340
171
340
172
340
173
340
174
340
175
340
176
340
177
340
178
340
179
340
17A
340
17B
340
17C
340
17D
340
17E
340
17F
340
180
340
181
340
182
340
183
340
184
340
185
340
186
340
187
340
188
340
189
340
18A
340
18B
340
18C
340
18D
340
18E
340
18F
340
190
340
191
340
192
340
193
340
194
340
195
340
196
340
197
340
198
340
199
340
19A
340
19B
340
19C
340
19D
340
19E
340
19F
340
1A0
340
1A1
340
1A2
340
1A3
340
1A4
340
1A5
340
1A6
340
1A7
340
1A8
340
1A9
340
1AA
340
1AB
340
1AC
340
1AD
340
1AE
340
1AF
340
1B0
340
1B1
340
1B2
340
1B3
340
1B4
340
1B5
340
1B6
340
1B7
340
1B8
340
1B9
340
1BA
340
1BB
340
1BC
340
1BD
340
1BE
340
1BF
340
1C0
340
1C1
340
1C2
340
1C3
340
1C4
340
1C5
340
1C6
340
1C7
340
1C8
340
1C9
340
1CA
340
1CB
340
1CC
340
1CD
  0
GROUP
  5
1DA
102
{ACAD_REACTORS
330
1A
102
}
100
AcDbGroup
300

 70
           0
 71
           1
340
1CF
340
1D0
340
1D1
340
1D2
340
1D3
340
1D4
340
1D5
340
1D6
340
1D7
340
1D8
340
1D9
  0
GROUP
  5
1EC
102
{ACAD_REACTORS
330
1A
102
}
100
AcDbGroup
300

 70
           0
 71
           1
340
1DB
340
1DC
340
1DD
340
1DE
340
1DF
340
1E0
340
1E1
340
1E2
340
1E3
340
1E4
340
1E5
340
1E6
340
1E7
340
1E8
340
1E9
340
1EA
340
1EB
  0
GROUP
  5
1FA
102
{ACAD_REACTORS
330
1A
102
}
100
AcDbGroup
300

 70
           0
 71
           1
340
1ED
340
1EE
340
1EF
340
1F0
340
1F1
340
1F2
340
1F3
340
1F4
340
1F5
340
1F6
340
1F7
340
1F8
340
1F9
  0
GROUP
  5
1FF
102
{ACAD_REACTORS
330
1A
102
}
100
AcDbGroup
300

 70
           0
 71
           1
340
1FB
340
1FC
340
1FD
340
1FE
  0
GROUP
  5
204
102
{ACAD_REACTORS
330
1A
102
}
100
AcDbGroup
300

 70
           0
 71
           1
340
200
340
201
340
202
340
203
  0
GROUP
  5
209
102
{ACAD_REACTORS
330
1A
102
}
100
AcDbGroup
300

 70
           0
 71
           1
340
205
340
206
340
207
340
208
  0
GROUP
  5
20E
102
{ACAD_REACTORS
330
1A
102
}
100
AcDbGroup
300

 70
           0
 71
           1
340
20A
340
20B
340
20C
340
20D
  0
GROUP
  5
226
102
{ACAD_REACTORS
330
1A
102
}
100
AcDbGroup
300

 70
           0
 71
           1
340
222
340
223
340
224
340
225
  0
GROUP
  5
22B
102
{ACAD_REACTORS
330
1A
102
}
100
AcDbGroup
300

 70
           0
 71
           1
340
227
340
228
340
229
340
22A
  0
GROUP
  5
230
102
{ACAD_REACTORS
330
1A
102
}
100
AcDbGroup
300

 70
           0
 71
           1
340
22C
340
22D
340
22E
340
22F
  0
GROUP
  5
235
102
{ACAD_REACTORS
330
1A
102
}
100
AcDbGroup
300

 70
           0
 71
           1
340
231
340
232
340
233
340
234
  0
GROUP
  5
249
102
{ACAD_REACTORS
330
1A
102
}
100
AcDbGroup
300

 70
           0
 71
           1
340
242
340
243
340
244
340
245
340
246
340
247
340
248
  0
GROUP
  5
251
102
{ACAD_REACTORS
330
1A
102
}
100
AcDbGroup
300

 70
           0
 71
           1
340
24A
340
24B
340
24C
340
24D
340
24E
340
24F
340
250
  0
GROUP
  5
26C
102
{ACAD_REACTORS
330
1A
102
}
100
AcDbGroup
300

 70
           0
 71
           1
340
258
340
259
340
25A
340
25B
340
25C
340
25D
340
25E
340
25F
340
260
340
261
340
262
340
263
340
264
340
265
340
266
340
267
340
269
340
26A
340
26B
  0
GROUP
  5
33B
102
{ACAD_REACTORS
330
1A
102
}
100
AcDbGroup
300

 70
           0
 71
           1
340
32B
340
32C
340
32D
340
32E
340
32F
340
330
340
331
340
332
340
333
340
334
340
335
340
336
340
337
340
338
340
339
340
33A
  0
ENDSEC
  0
EOF
